<?xml version="1.0" standalone="no"?>
<!DOCTYPE svg PUBLIC "-//W3C//DTD SVG 1.1//EN" "http://www.w3.org/Graphics/SVG/1.1/DTD/svg11.dtd">
<svg xmlns="http://www.w3.org/2000/svg">
<metadata>Iconscout</metadata>
<defs>
<font id="unicons-11" horiz-adv-x="1000" >
<font-face font-family="unicons-11" font-weight="400" font-stretch="normal" units-per-em="1000" ascent="850" descent="-150" />
<missing-glyph horiz-adv-x="1000" />
<glyph glyph-name="temperature" unicode="&#xea97;" d="M542 213v408a42 42 0 0 1-84 0v-408a83 83 0 0 1-41-71 83 83 0 0 1 166 0 83 83 0 0 1-41 71z m146 95v313a188 188 0 0 1-375 0v-313a250 250 0 0 1 133-409 292 292 0 0 1 54-7 250 250 0 0 1 188 416z m-84-294a167 167 0 0 0-267 91 167 167 0 0 0 45 157 42 42 0 0 1 13 30v329a104 104 0 0 0 208 0v-331a42 42 0 0 1 13-30 167 167 0 0 0-12-250z" horiz-adv-x="1000" />

<glyph glyph-name="cloud-moon-meatball" unicode="&#xea98;" d="M904 517a42 42 0 0 1-39 11 125 125 0 0 0-27-4 125 125 0 0 0-125 125 127 127 0 0 0 3 28 42 42 0 0 1-11 39 42 42 0 0 1-38 12 208 208 0 0 1-160-176 244 244 0 0 1-69 10 250 250 0 0 1-248-212 147 147 0 0 1-107-142 145 145 0 0 1 59-117 42 42 0 1 1 49 67 61 61 0 0 0-24 50 63 63 0 0 0 62 62 42 42 0 0 1 42 42 167 167 0 0 0 257 139 163 163 0 0 0 65-83 42 42 0 0 1 33-28 97 97 0 0 0 22-185 42 42 0 0 1-21-55 42 42 0 0 1 38-25 42 42 0 0 1 17 4 180 180 0 0 1 108 167 176 176 0 0 1-20 83 206 206 0 0 1 147 149 42 42 0 0 1-13 39z m-191-118a113 113 0 0 0-18 0 192 192 0 0 1-30 13 246 246 0 0 1-75 95v16a125 125 0 0 0 43 95 208 208 0 0 1 177-176 125 125 0 0 0-97-42z m-192-254h-32l16 28a42 42 0 0 1-73 42l-15-28-16 28a42 42 0 0 1-73-42l17-28h-32a42 42 0 0 1 0-83h32l-17-28a42 42 0 0 1 73-42l16 28 15-28a42 42 0 1 1 73 42l-16 28h32a42 42 0 0 1 0 83z" horiz-adv-x="1000" />

<glyph glyph-name="flip-h-alt" unicode="&#xea99;" d="M550 613a42 42 0 0 1 10 0l81 20a42 42 0 0 1 31 50 42 42 0 0 1-51 31l-79-19a42 42 0 0 1 10-84z m-154-138h-83a42 42 0 1 1 0-83h83a42 42 0 0 1 0 83z m167 0a42 42 0 1 1 0-83h83a42 42 0 0 1 0 83z m-255 77h10l81 20a42 42 0 0 1-20 82l-81-20a42 42 0 0 1 10-83z m-141-140a42 42 0 0 1 41 42v83a42 42 0 0 1-83 0v-83a42 42 0 0 1 42-42z m692 346a42 42 0 0 1-36 9l-41-10a42 42 0 0 1-31-51 42 42 0 0 1 42-31 42 42 0 0 1 82 8v42a42 42 0 0 1-16 33z m-26-200a42 42 0 0 1-41-41v-48a42 42 0 0 1 21-77h20a42 42 0 0 1 42 41v84a42 42 0 0 1-42 41z m0-250h-666a42 42 0 0 1-42-41v-125a42 42 0 0 1 32-42l666-167a42 42 0 0 1 10 0 42 42 0 0 1 42 42v292a42 42 0 0 1-42 41z m-41-280l-584 146v51h584z" horiz-adv-x="1000" />

<glyph glyph-name="vector-square-alt" unicode="&#xea9a;" d="M667 558h-334a42 42 0 0 1-41-41v-334a42 42 0 0 1 41-41h334a42 42 0 0 1 41 41v334a42 42 0 0 1-41 41z m-42-333h-250v250h250z m250-137v524a83 83 0 1 1-113 113h-524a83 83 0 1 1-113-113v-524a83 83 0 1 1 113-113h524a83 83 0 1 1 113 113z m-83 0a80 80 0 0 1-30-30h-524a80 80 0 0 1-30 30v524a80 80 0 0 1 30 30h524a80 80 0 0 1 30-30z" horiz-adv-x="1000" />

<glyph glyph-name="object-ungroup" unicode="&#xea9b;" d="M875 88v274a83 83 0 1 1-113 113h-137v137a83 83 0 1 1-113 113h-274a83 83 0 1 1-113-113v-274a83 83 0 1 1 113-113h137v-137a83 83 0 1 1 113-113h274a83 83 0 1 1 113 113z m-542 345a83 83 0 0 1 42-71v-54h-137a80 80 0 0 1-30 30v274a80 80 0 0 1 30 30h274a80 80 0 0 1 30-30v-137h-54a83 83 0 0 1-155-42z m209-41v-54a80 80 0 0 1-30-30h-54v54a80 80 0 0 1 30 30z m250-304a80 80 0 0 1-30-30h-274a80 80 0 0 1-30 30v137h54a83 83 0 1 1 113 113v54h137a80 80 0 0 1 30-30z" horiz-adv-x="1000" />

<glyph glyph-name="th" unicode="&#xea9c;" d="M875 767h-750a42 42 0 0 1-42-42v-750a42 42 0 0 1 42-42h750a42 42 0 0 1 42 42v750a42 42 0 0 1-42 42z m-417-750h-291v291h291z m0 375h-291v291h291z m375-375h-291v291h291z m0 375h-291v291h291z" horiz-adv-x="1000" />

<glyph glyph-name="images" unicode="&#xea9d;" d="M750 225v417a125 125 0 0 1-125 125h-417a125 125 0 0 1-125-125v-417a125 125 0 0 1 125-125h417a125 125 0 0 1 125 125z m-583 417a42 42 0 0 0 41 41h417a42 42 0 0 0 42-41v-182l-45 45a107 107 0 0 1-76 32 108 108 0 0 1-75-32l-38-37-34 33a122 122 0 0 1-171 0l-61-61z m5-436a39 39 0 0 0-5 19v97l120 120a38 38 0 0 0 53 0l35-34z m358 240a22 22 0 0 0 16 7 22 22 0 0 0 17-7l104-103v-118a42 42 0 0 0-42-42h-358z m345 154a42 42 0 0 1-42-42v-416a125 125 0 0 0-125-125h-416a42 42 0 0 1 0-84h416a208 208 0 0 1 209 209v416a42 42 0 0 1-42 42z" horiz-adv-x="1000" />

<glyph glyph-name="temperature-minus" unicode="&#xea9e;" d="M583 621a188 188 0 0 1-375 0v-313a250 250 0 0 1 134-409 292 292 0 0 1 53-7 250 250 0 0 1 188 416z m-83-609a167 167 0 0 0-222 250 42 42 0 0 1 13 30v329a104 104 0 0 0 208 0v-331a42 42 0 0 1 13-30 167 167 0 0 0-12-250z m-63 201v408a42 42 0 0 1-83 0v-408a83 83 0 0 1-42-71 83 83 0 0 1 167 0 83 83 0 0 1-42 71z m376 533h-125a42 42 0 0 1 0-83h125a42 42 0 0 1 0 83z" horiz-adv-x="1000" />

<glyph glyph-name="flip-v" unicode="&#xea9f;" d="M317 218a42 42 0 0 1-59-60l44-44a42 42 0 0 1 59 0 42 42 0 0 1 0 59z m-158 225l-44-45a38 38 0 0 1-8-10 42 42 0 0 1-12-68l45-44a42 42 0 0 1 59 0 42 42 0 0 1 0 59l-15 15 34 34a42 42 0 0 1-59 59z m174-33a42 42 0 0 1-41-42v-63a42 42 0 0 1 83 0v63a42 42 0 0 1-42 42z m572-30l-209 208a42 42 0 0 1-45 9 42 42 0 0 1-26-39v-416a42 42 0 0 1 26-39 35 35 0 0 1 16-3 42 42 0 0 1 29 12l209 208a42 42 0 0 1 0 60z m-197-138v216l108-108z m-208 525a42 42 0 0 1-42-42v-750a42 42 0 0 1 84 0v750a42 42 0 0 1-42 42z m-151-170a42 42 0 0 1-45-9l-27-30a42 42 0 0 1 0-58 42 42 0 0 1 29-13 42 42 0 0 1 19 5 42 42 0 0 1 50 43v23a42 42 0 0 1-26 39z" horiz-adv-x="1000" />

<glyph glyph-name="cloud-sun-rain-alt" unicode="&#xeaa0;" d="M354 58a42 42 0 0 1-42-41v-42a42 42 0 0 1 84 0v42a42 42 0 0 1-42 41z m0 209a42 42 0 0 1-42-42v-42a42 42 0 0 1 84 0v42a42 42 0 0 1-42 42z m521 291h-33a177 177 0 0 1-22 53l23 24a42 42 0 0 1-58 58l-24-23a177 177 0 0 1-53 22v33a42 42 0 0 1-83 0v-33a171 171 0 0 1-53-22l-23 23a42 42 0 0 1-59-58l23-24c-3-6-6-13-10-20a244 244 0 0 1-65 9 250 250 0 0 1-248-214 146 146 0 0 1-19-274 47 47 0 0 1 17-3 42 42 0 0 1 16 80 62 62 0 0 0-37 57 63 63 0 0 0 62 62 42 42 0 0 1 42 42 167 167 0 0 0 324 54 42 42 0 0 1 33-28 97 97 0 0 0 39-176 42 42 0 0 1 46-70 181 181 0 0 1 79 150 175 175 0 0 1-13 65l6-5a42 42 0 0 1 29-12 42 42 0 0 1 29 12 42 42 0 0 1 0 59l-23 23a177 177 0 0 1 22 53h33a42 42 0 0 1 0 83z m-139-110a87 87 0 0 0-25-18 174 174 0 0 1-44 23 255 255 0 0 1-87 103 101 101 0 0 0 19 29 101 101 0 0 0 137 0 99 99 0 0 0 0-137z m-215-348a42 42 0 0 1-42-42v-41a42 42 0 0 1 83 0v41a42 42 0 0 1-41 42z m0 208a42 42 0 0 1-42-41v-42a42 42 0 0 1 83 0v42a42 42 0 0 1-41 41z" horiz-adv-x="1000" />

<glyph glyph-name="square-full" unicode="&#xeaa2;" d="M875 767h-750a42 42 0 0 1-42-42v-750a42 42 0 0 1 42-42h750a42 42 0 0 1 42 42v750a42 42 0 0 1-42 42z m-42-750h-666v666h666z" horiz-adv-x="1000" />

<glyph glyph-name="vertical-distribute-bottom" unicode="&#xeaa3;" d="M875 100h-42v208a42 42 0 0 1-41 42h-584a42 42 0 0 1-41-42v-208h-42a42 42 0 0 1 0-83h750a42 42 0 0 1 0 83z m-125 0h-500v167h500z m-625 333h750a42 42 0 0 1 0 84h-83v125a42 42 0 0 1-42 41h-500a42 42 0 0 1-42-41v-125h-83a42 42 0 0 1 0-84z m167 167h416v-83h-416z" horiz-adv-x="1000" />

<glyph glyph-name="panorama-h-alt" unicode="&#xeaa4;" d="M894 607a42 42 0 0 1-32 35h-4a1562 1562 0 0 1-716 0h-5a42 42 0 0 1-31-34 1480 1480 0 0 1 0-514 42 42 0 0 1 31-33h5a1567 1567 0 0 1 358-44 1567 1567 0 0 1 358 41h5a42 42 0 0 1 31 34 1480 1480 0 0 1 0 515z m-77-472a1476 1476 0 0 0-634 0 1383 1383 0 0 0 0 430 1476 1476 0 0 0 634 0 1383 1383 0 0 0 0-430z" horiz-adv-x="1000" />

<glyph glyph-name="pathfinder-unite" unicode="&#xeaa5;" d="M875 536h-189v189a42 42 0 0 1-42 42h-519a42 42 0 0 1-42-42v-519a42 42 0 0 1 42-42h189v-189a42 42 0 0 1 42-42h519a42 42 0 0 1 42 42v519a42 42 0 0 1-42 42z m-42-519h-436v189a42 42 0 0 1-41 42h-189v435h436v-189a42 42 0 0 1 41-41h189z" horiz-adv-x="1000" />

<glyph glyph-name="wind" unicode="&#xeaa6;" d="M146 475a42 42 0 1 1-42 42 42 42 0 0 1 42-42z m167 0h291a125 125 0 0 1 0 250 128 128 0 0 1-62-17 42 42 0 0 1-16-57 42 42 0 0 1 57-15 45 45 0 0 0 21 6 42 42 0 0 0 0-84h-291a42 42 0 0 1 0-83z m-167-167h292a42 42 0 0 1 0 84h-292a42 42 0 0 1 0-84z m708 167a42 42 0 1 1-41 42 42 42 0 0 1 41-42z m-83-83h-167a42 42 0 0 1 0-84h167a42 42 0 0 0 0-83 42 42 0 0 1 0-83 125 125 0 0 1 0 250z m-250-167h-167a42 42 0 0 1 0-83h167a42 42 0 0 0 0-84 45 45 0 0 0-21 6 42 42 0 1 1-42-72 128 128 0 0 1 63-17 125 125 0 0 1 0 250z m-334 0h-41a42 42 0 0 1 0-83h41a42 42 0 0 1 0 83z" horiz-adv-x="1000" />

<glyph glyph-name="vector-square" unicode="&#xeaa7;" d="M833 176v348a125 125 0 1 1-159 159h-348a125 125 0 1 1-159-159v-348a125 125 0 1 1 159-159h348a125 125 0 1 1 159 159z m-41 507a42 42 0 1 0-42-41 42 42 0 0 0 42 41z m-584 0a42 42 0 1 0-41-41 42 42 0 0 0 41 41z m0-666a42 42 0 1 0 42 41 42 42 0 0 0-42-41z m466 83h-348a125 125 0 0 1-76 76v348a125 125 0 0 1 76 76h348a125 125 0 0 1 76-76v-348a125 125 0 0 1-76-76z m118-83a42 42 0 1 0 41 41 42 42 0 0 0-41-41z" horiz-adv-x="1000" />

<glyph glyph-name="vertical-align-bottom" unicode="&#xeaa8;" d="M875 17h-125v458a42 42 0 0 1-42 42h-125v208a42 42 0 0 1-41 42h-250a42 42 0 0 1-42-42v-708h-125a42 42 0 0 1 0-84h750a42 42 0 0 1 0 84z m-375 0h-167v666h167z m167 0h-84v416h84z" horiz-adv-x="1000" />

<glyph glyph-name="ruler" unicode="&#xeaa9;" d="M942 556l-234 236a42 42 0 0 1-29 12 42 42 0 0 1-29-12l-592-589a42 42 0 0 1 0-59l236-236a42 42 0 0 1 29-12 42 42 0 0 1 30 12l117 118 354 354 118 118a42 42 0 0 1 0 58z m-147-88l-30 30a42 42 0 0 1-59 0 42 42 0 0 1 0-60l30-29-59-59-89 88a42 42 0 0 1-58-58l88-89-59-59-29 30a42 42 0 1 1-60-59l30-30-59-59-89 89a42 42 0 0 1-58 0 42 42 0 0 1 0-59l88-89-59-59-177 177 531 531 177-177z" horiz-adv-x="1000" />

<glyph glyph-name="object-group" unicode="&#xeaaa;" d="M667 433h-84v84a42 42 0 0 1-41 41h-209a42 42 0 0 1-41-41v-209a42 42 0 0 1 41-41h84v-84a42 42 0 0 1 41-41h209a42 42 0 0 1 41 41v209a42 42 0 0 1-41 41z m-250-41v-42h-42v125h125v-42h-42a42 42 0 0 1-41-41z m208-167h-125v125h125z m250-137v524a83 83 0 1 1-113 113h-524a83 83 0 1 1-113-113v-524a83 83 0 1 1 113-113h524a83 83 0 1 1 113 113z m-83 0a80 80 0 0 1-30-30h-524a80 80 0 0 1-30 30v524a80 80 0 0 1 30 30h524a80 80 0 0 1 30-30z" horiz-adv-x="1000" />

<glyph glyph-name="panorama-v" unicode="&#xeaab;" d="M720 350a880 880 0 0 0 68 358 42 42 0 0 1-3 41 42 42 0 0 1-35 18h-500a42 42 0 0 1-35-19 42 42 0 0 1-3-42 880 880 0 0 0 68-356 880 880 0 0 0-68-358 42 42 0 0 1 3-41 42 42 0 0 1 35-18h500a42 42 0 0 1 35 19 42 42 0 0 1 3 42 880 880 0 0 0-68 356z m-32-333h-375a1032 1032 0 0 1 52 333 1032 1032 0 0 1-53 333h375a1032 1032 0 0 1-52-333 1032 1032 0 0 1 53-333z" horiz-adv-x="1000" />

<glyph glyph-name="panorama-h" unicode="&#xeaac;" d="M897 635a42 42 0 0 1-41 3 886 886 0 0 0-356-68 886 886 0 0 0-357 68 42 42 0 0 1-42-3 42 42 0 0 1-18-35v-500a42 42 0 0 1 20-35 42 42 0 0 1 41-3 886 886 0 0 0 356 68 886 886 0 0 0 358-68 44 44 0 0 1 17-4 42 42 0 0 1 23 7 42 42 0 0 1 19 35v500a42 42 0 0 1-19 35z m-64-473a1032 1032 0 0 1-333 52 1032 1032 0 0 1-333-52v375a1032 1032 0 0 1 333-52 1032 1032 0 0 1 333 52z" horiz-adv-x="1000" />

<glyph glyph-name="temperature-half" unicode="&#xeaad;" d="M542 213v200a42 42 0 0 1-84 0v-200a83 83 0 0 1-41-71 83 83 0 0 1 166 0 83 83 0 0 1-41 71z m146 95v313a188 188 0 0 1-375 0v-313a250 250 0 0 1 133-409 292 292 0 0 1 54-7 250 250 0 0 1 188 416z m-84-294a167 167 0 0 0-221 250 42 42 0 0 1 12 29v328a104 104 0 0 0 208 0v-331a42 42 0 0 1 13-30 167 167 0 0 0-12-250z" horiz-adv-x="1000" />

<glyph glyph-name="layers-alt" unicode="&#xeaaf;" d="M875 767h-500a42 42 0 0 1-42-42v-167h-83a42 42 0 0 1-42-41v-167h-83a42 42 0 0 1-42-42v-333a42 42 0 0 1 42-42h333a42 42 0 0 1 42 42v83h167a42 42 0 0 1 41 42v83h167a42 42 0 0 1 42 42v500a42 42 0 0 1-42 42z m-458-750h-250v250h250z m208 125h-125v166a42 42 0 0 1-42 42h-166v125h333z m208 125h-125v250a42 42 0 0 1-41 41h-250v125h416z" horiz-adv-x="1000" />

<glyph glyph-name="line-alt" unicode="&#xeab0;" d="M905 713a42 42 0 0 1-60 0l-750-750a42 42 0 0 1 0-59 42 42 0 0 1 60 0l750 750a42 42 0 0 1 0 59z" horiz-adv-x="1000" />

<glyph glyph-name="image-resize-landscape" unicode="&#xeab1;" d="M542 392h-459a42 42 0 0 1-41-42v-375a42 42 0 0 1 41-42h459a42 42 0 0 1 41 42v375a42 42 0 0 1-41 42z m-232-375l80 80a12 12 0 0 0 21 0l80-80z m190 109l-30 29a100 100 0 0 1-139 0l-139-138h-67v291h375z m-417 553a42 42 0 0 1 36 20 44 44 0 0 1 8 26 42 42 0 0 1-44 42 42 42 0 0 1-41-42v-4a42 42 0 0 1 41-42z m330 4h8a42 42 0 0 1 0 84h-8a42 42 0 0 1 0-84z m-330-199a42 42 0 0 1 42 42v9a42 42 0 1 1-83 0v-9a42 42 0 0 1 41-42z m504 283h-8a42 42 0 0 1 0-84h8a42 42 0 0 1 0 84z m-341-84h8a42 42 0 0 1 0 84h-8a42 42 0 0 1 0-84z m671-100a42 42 0 0 1-42-41v-9a42 42 0 0 1 83 0v9a42 42 0 0 1-41 41z m-204-566h-10a42 42 0 1 1 0-84h10a42 42 0 0 1 0 84z m199 750a42 42 0 0 1-37-42 42 42 0 0 1 4-17 42 42 0 0 1 79 12v5a45 45 0 0 1-46 42z m5-371a42 42 0 0 1-42-42v-9a42 42 0 0 1 83 0v9a42 42 0 0 1-41 42z m-163 371h-8a42 42 0 0 1 0-84h8a42 42 0 0 1 0 84z m163-750a39 39 0 0 1-19-5 42 42 0 0 1-23-37 42 42 0 0 1 42-42 45 45 0 0 1 41 46 42 42 0 0 1-41 38z m0 190a42 42 0 0 1-42-42v-9a42 42 0 1 1 83 0v11a42 42 0 0 1-41 41z" horiz-adv-x="1000" />

<glyph glyph-name="image-resize-square" unicode="&#xeab2;" d="M125 513a42 42 0 0 1 42 41v8a42 42 0 0 1-84 0v-8a42 42 0 0 1 42-41z m0 166a42 42 0 0 1 18 4 42 42 0 0 1-14 84h-4a45 45 0 0 1-42-46 42 42 0 0 1 42-40z m725 8a42 42 0 0 1 67 38 42 42 0 0 1-42 42h-4a42 42 0 0 1-21-78z m-355-4h10a42 42 0 0 1 0 84h-10a42 42 0 0 1 0-84z m-187 0h9a42 42 0 0 1 0 84h-9a42 42 0 0 1 0-84z m567-666a42 42 0 0 1-17-4 42 42 0 0 1 13-80h4a45 45 0 0 1 42 46 42 42 0 0 1-42 38z m-292 375a42 42 0 0 1-41 41h-406a45 45 0 0 1-11 0 42 42 0 0 1-42-41v-417a42 42 0 0 1 42-42h421a42 42 0 0 1 37 59z m-83-375h-270l163 162a14 14 0 0 0 19 0l88-87z m0 193l-28 28a98 98 0 0 1-138 0l-167-166v278h333z m375 0a42 42 0 0 1-42-42v-9a42 42 0 0 1 84 0v8a42 42 0 0 1-42 41z m0 375a42 42 0 0 1-42-42v-10a42 42 0 1 1 84 0v9a42 42 0 0 1-42 42z m0-188a42 42 0 0 1-42-42v-9a42 42 0 0 1 84 0v9a42 42 0 0 1-42 41z m-162-380h-9a42 42 0 1 1 0-84h9a42 42 0 0 1 0 84z m-21 666a42 42 0 0 1 0 84h-9a42 42 0 1 1 0-84z" horiz-adv-x="1000" />

<glyph glyph-name="pathfinder" unicode="&#xeab3;" d="M167 248a42 42 0 0 1-84 0v-42a42 42 0 0 1 42-42h42a42 42 0 0 1 0 84z m174 435h87a42 42 0 0 1 0 84h-87a42 42 0 0 1 0-84z m262 0a42 42 0 0 1 83 0v42a42 42 0 0 1-42 42h-41a42 42 0 0 1 0-84z m-436 84h-42a42 42 0 0 1-42-42v-42a42 42 0 0 1 84 0 42 42 0 0 1 0 84z m-42-387a42 42 0 0 1 42 42v87a42 42 0 0 1-84 0v-87a42 42 0 0 1 42-42z m534-363h-87a42 42 0 1 1 0-84h87a42 42 0 0 1 0 84z m216 519h-42a42 42 0 0 1 0-83 42 42 0 0 1 84 0v41a42 42 0 0 1-42 42z m0-216a42 42 0 0 1-42-42v-87a42 42 0 0 1 84 0v87a42 42 0 0 1-42 42z m-189 216a42 42 0 1 1-83 0h-247a42 42 0 0 1-42-42v-246a42 42 0 1 1 0-84 42 42 0 0 1 83 0h247a42 42 0 0 1 42 42v247a42 42 0 1 1 0 83z m-83-288h-206v205h205z m272-190a42 42 0 0 1-42-41 42 42 0 0 1 0-84h42a42 42 0 0 1 42 42v42a42 42 0 0 1-42 41z m-478-41a42 42 0 0 1-83 0v-42a42 42 0 0 1 42-42h42a42 42 0 0 1 0 84z" horiz-adv-x="1000" />

<glyph glyph-name="flip-h" unicode="&#xeab4;" d="M875 392h-750a42 42 0 0 1 0-84h750a42 42 0 0 1 0 84z m-420 83h63a42 42 0 0 1 0 83h-63a42 42 0 0 1 0-83z m188 42a42 42 0 0 1 42-42h23a42 42 0 0 1 39 26 42 42 0 0 1-9 45l-28 27a42 42 0 0 1-58 0 42 42 0 0 1-8-48 62 62 0 0 1-1-8z m-158 134l15 15 34-33a42 42 0 0 1 59 0 42 42 0 0 1 0 58l-45 44a38 38 0 0 1-10 8 42 42 0 0 1-68 12l-44-45a42 42 0 0 1 59-59z m223-426h-416a42 42 0 0 1-39-26 42 42 0 0 1 9-45l208-209a42 42 0 0 1 60 0l208 209a42 42 0 0 1 9 45 42 42 0 0 1-39 26z m-208-191l-108 108h216z m-206 441a42 42 0 0 1 29 12l45 46a42 42 0 0 1-60 60l-44-45a42 42 0 0 1 0-59 42 42 0 0 1 30-14z" horiz-adv-x="1000" />

<glyph glyph-name="horizontal-distribution-right" unicode="&#xeab5;" d="M792 767a42 42 0 0 1-42-42v-42h-208a42 42 0 0 1-42-41v-584a42 42 0 0 1 42-41h208v-42a42 42 0 0 1 83 0v750a42 42 0 0 1-41 42z m-42-667h-167v500h167z m-375 667a42 42 0 0 1-42-42v-83h-125a42 42 0 0 1-41-42v-500a42 42 0 0 1 41-42h125v-83a42 42 0 0 1 84 0v750a42 42 0 0 1-42 42z m-42-625h-83v416h83z" horiz-adv-x="1000" />

<glyph glyph-name="horizontal-distribution-left" unicode="&#xeab6;" d="M458 683h-208v42a42 42 0 0 1-83 0v-750a42 42 0 0 1 83 0v42h208a42 42 0 0 1 42 41v584a42 42 0 0 1-42 41z m-41-583h-167v500h167z m375 542h-125v83a42 42 0 0 1-84 0v-750a42 42 0 0 1 84 0v83h125a42 42 0 0 1 41 42v500a42 42 0 0 1-41 42z m-42-500h-83v416h83z" horiz-adv-x="1000" />

<glyph glyph-name="horizontal-distribution-center" unicode="&#xeab7;" d="M792 642h-42v83a42 42 0 0 1-83 0v-83h-42a42 42 0 0 1-42-42v-500a42 42 0 0 1 42-42h42v-83a42 42 0 0 1 83 0v83h42a42 42 0 0 1 41 42v500a42 42 0 0 1-41 42z m-42-500h-83v416h83z m-292 541h-83v42a42 42 0 0 1-83 0v-42h-84a42 42 0 0 1-41-41v-584a42 42 0 0 1 41-41h84v-42a42 42 0 0 1 83 0v42h83a42 42 0 0 1 42 41v584a42 42 0 0 1-42 41z m-41-583h-167v500h167z" horiz-adv-x="1000" />

<glyph glyph-name="horizontal-align-center" unicode="&#xeab8;" d="M875 433h-83v125a42 42 0 0 1-42 42h-208v125a42 42 0 0 1-84 0v-125h-208a42 42 0 0 1-42-42v-125h-83a42 42 0 0 1-42-41v-250a42 42 0 0 1 42-42h333v-125a42 42 0 0 1 84 0v125h333a42 42 0 0 1 42 42v250a42 42 0 0 1-42 41z m-583 84h416v-84h-416z m541-334h-666v167h666z" horiz-adv-x="1000" />

<glyph glyph-name="ruler-combined" unicode="&#xeab9;" d="M875 767h-750a42 42 0 0 1-42-42v-750a42 42 0 0 1 42-42h250a42 42 0 0 1 42 42v458h458a42 42 0 0 1 42 42v250a42 42 0 0 1-42 42z m-42-250h-83v41a42 42 0 0 1-83 0v-41h-84v41a42 42 0 0 1-83 0v-41h-83v41a42 42 0 0 1-84 0v-41h-41a42 42 0 0 1 0-84h41v-83h-41a42 42 0 0 1 0-83h41v-84h-41a42 42 0 0 1 0-83h41v-83h-166v666h666z" horiz-adv-x="1000" />

<glyph glyph-name="horizontal-align-right" unicode="&#xeaba;" d="M875 767a42 42 0 0 1-42-42v-125h-458a42 42 0 0 1-42-42v-125h-208a42 42 0 0 1-42-41v-250a42 42 0 0 1 42-42h708v-125a42 42 0 0 1 84 0v750a42 42 0 0 1-42 42z m-42-584h-666v167h666z m0 250h-416v84h416z" horiz-adv-x="1000" />

<glyph glyph-name="horizontal-align-left" unicode="&#xeabb;" d="M875 433h-208v125a42 42 0 0 1-42 42h-458v125a42 42 0 0 1-84 0v-750a42 42 0 0 1 84 0v125h708a42 42 0 0 1 42 42v250a42 42 0 0 1-42 41z m-708 84h416v-84h-416z m666-334h-666v167h666z" horiz-adv-x="1000" />

<glyph glyph-name="table" unicode="&#xeabc;" d="M875 767h-750a42 42 0 0 1-42-42v-750a42 42 0 0 1 42-42h750a42 42 0 0 1 42 42v750a42 42 0 0 1-42 42z m-542-750h-166v166h166z m0 250h-166v166h166z m0 250h-166v166h166z m250-500h-166v166h166z m0 250h-166v166h166z m0 250h-166v166h166z m250-500h-166v166h166z m0 250h-166v166h166z m0 250h-166v166h166z" horiz-adv-x="1000" />

<glyph glyph-name="th-slash" unicode="&#xeabd;" d="M946-37l-41 42-250 250-250 250-250 250-42 41a42 42 0 0 1-59-59l29-29v-733a42 42 0 0 1 42-42h733l29-29a42 42 0 0 1 59 0 42 42 0 0 1 0 59z m-779 662l108-108h-108z m166-608h-166v166h166z m0 250h-166v166h166z m84 108l108-108h-108z m166-358h-166v166h166z m84 0v108l108-108z m-306 666h222v-208a42 42 0 0 1 42-42h208v-222a42 42 0 1 1 84 0v514a42 42 0 0 1-42 42h-514a42 42 0 0 1 0-84z m306 0h166v-166h-166z" horiz-adv-x="1000" />

<glyph glyph-name="crop-alt-rotate-right" unicode="&#xeabe;" d="M667 683h-25l13 12a42 42 0 1 1-60 60l-83-84a42 42 0 0 1 0-59l83-83a42 42 0 0 1 60 0 42 42 0 0 1 0 59l-13 12h25a125 125 0 0 0 125-125v-83a42 42 0 0 1 83 0v83a208 208 0 0 1-208 208z m0-583h-42v292a42 42 0 0 1-42 41h-291v42a42 42 0 0 1-84 0v-42h-41a42 42 0 0 1 0-83h41v-292a42 42 0 0 1 42-41h292v-42a42 42 0 0 1 83 0v42h42a42 42 0 0 1 0 83z m-125 0h-250v250h250z" horiz-adv-x="1000" />

<glyph glyph-name="apps" unicode="&#xeabf;" d="M417 308h-292a42 42 0 0 1-42-41v-292a42 42 0 0 1 42-42h292a42 42 0 0 1 41 42v292a42 42 0 0 1-41 41z m-42-291h-208v208h208z m500 750h-292a42 42 0 0 1-41-42v-292a42 42 0 0 1 41-41h292a42 42 0 0 1 42 41v292a42 42 0 0 1-42 42z m-42-292h-208v208h208z m42-167h-292a42 42 0 0 1-41-41v-292a42 42 0 0 1 41-42h292a42 42 0 0 1 42 42v292a42 42 0 0 1-42 41z m-42-291h-208v208h208z m-416 750h-292a42 42 0 0 1-42-42v-292a42 42 0 0 1 42-41h292a42 42 0 0 1 41 41v292a42 42 0 0 1-41 42z m-42-292h-208v208h208z" horiz-adv-x="1000" />

<glyph glyph-name="exclude" unicode="&#xeac0;" d="M397 536h-41a42 42 0 0 1-42-42v-41a42 42 0 0 1 83 0 42 42 0 1 1 0 83z m247-247a42 42 0 0 1-41-41 42 42 0 0 1 0-84h41a42 42 0 0 1 42 42v42a42 42 0 0 1-42 41z m231 247h-189v189a42 42 0 0 1-42 42h-519a42 42 0 0 1-42-42v-519a42 42 0 0 1 42-42h189v-189a42 42 0 0 1 42-42h519a42 42 0 0 1 42 42v519a42 42 0 0 1-42 42z m-42-519h-436v147a42 42 0 0 1 0 84 42 42 0 0 1-83 0h-147v435h436v-147a42 42 0 0 1 0-83 42 42 0 0 1 83 0h147z" horiz-adv-x="1000" />

<glyph glyph-name="crop-alt" unicode="&#xeac1;" d="M792 183h-42v375a42 42 0 0 1-42 42h-375v42a42 42 0 0 1-83 0v-42h-42a42 42 0 0 1 0-83h42v-375a42 42 0 0 1 42-42h375v-42a42 42 0 0 1 83 0v42h42a42 42 0 0 1 0 83z m-125 0h-334v334h334z" horiz-adv-x="1000" />

<glyph glyph-name="grids" unicode="&#xeac2;" d="M875 767h-750a42 42 0 0 1-42-42v-750a42 42 0 0 1 42-42h750a42 42 0 0 1 42 42v750a42 42 0 0 1-42 42z m-542-750h-166v666h166z m250 0h-166v666h166z m250 0h-166v666h166z" horiz-adv-x="1000" />

<glyph glyph-name="flip-v-alt" unicode="&#xeac3;" d="M206 340a42 42 0 0 1-51-32l-20-80a42 42 0 0 1 32-50 42 42 0 0 1 50 31l20 81a42 42 0 0 1-31 50z m708-313l-166 666a42 42 0 0 1-40 32h-125a42 42 0 0 1-41-42v-666a42 42 0 0 1 41-42h292a42 42 0 0 1 33 16 42 42 0 0 1 9 36z m-289 31v584h51l146-584z m-358 525a42 42 0 0 1-51-31l-20-81a42 42 0 0 1 30-50h10a42 42 0 0 1 42 32l20 80a42 42 0 0 1-31 50z m46 59h83a42 42 0 0 1 0 83h-83a42 42 0 0 1 0-83z m-136-584a42 42 0 0 1-84 10l-10-41a42 42 0 0 1 8-36 42 42 0 0 1 34-16h42a42 42 0 0 1 10 83z m240 521a42 42 0 0 1-42-42v-83a42 42 0 0 1 83 0v83a42 42 0 0 1-41 42z m0-250a42 42 0 0 1-42-42v-83a42 42 0 0 1 83 0v83a42 42 0 0 1-41 42z m0-250a42 42 0 0 1-36-21h-48a42 42 0 0 1 0-83h84a42 42 0 0 1 41 42v20a42 42 0 0 1-41 42z" horiz-adv-x="1000" />

<glyph glyph-name="vertical-distribution-center" unicode="&#xeac4;" d="M875 225h-42v83a42 42 0 0 1-41 42h-584a42 42 0 0 1-41-42v-83h-42a42 42 0 0 1 0-83h42v-84a42 42 0 0 1 41-41h584a42 42 0 0 1 41 41v84h42a42 42 0 0 1 0 83z m-125-125h-500v167h500z m-625 417h83v-42a42 42 0 0 1 42-42h500a42 42 0 0 1 42 42v42h83a42 42 0 0 1 0 83h-83v42a42 42 0 0 1-42 41h-500a42 42 0 0 1-42-41v-42h-83a42 42 0 0 1 0-83z m167 83h416v-83h-416z" horiz-adv-x="1000" />

<glyph glyph-name="crop-alt-rotate-left" unicode="&#xeac5;" d="M405 171a42 42 0 0 1-60-59l13-12h-25a125 125 0 0 0-125 125v83a42 42 0 0 1-83 0v-83a208 208 0 0 1 208-208h25l-13-12a42 42 0 0 1 0-60 42 42 0 0 1 60 0l83 84a42 42 0 0 1 0 59z m428 179h-41v292a42 42 0 0 1-42 41h-292v42a42 42 0 0 1-83 0v-42h-42a42 42 0 0 1 0-83h42v-292a42 42 0 0 1 42-41h291v-42a42 42 0 0 1 84 0v42h41a42 42 0 0 1 0 83z m-125 0h-250v250h250z" horiz-adv-x="1000" />

<glyph glyph-name="vertical-distribution-top" unicode="&#xeac6;" d="M125 600h42v-208a42 42 0 0 1 41-42h584a42 42 0 0 1 41 42v208h42a42 42 0 0 1 0 83h-750a42 42 0 0 1 0-83z m125 0h500v-167h-500z m625-333h-750a42 42 0 0 1 0-84h83v-125a42 42 0 0 1 42-41h500a42 42 0 0 1 42 41v125h83a42 42 0 0 1 0 84z m-167-167h-416v83h416z" horiz-adv-x="1000" />

<glyph glyph-name="brush-alt" unicode="&#xeac7;" d="M500 100a42 42 0 1 1 42-42 42 42 0 0 1-42 42z m250 708h-500a42 42 0 0 1-42-41v-375a125 125 0 0 1 125-125h42v-99a167 167 0 1 1 250 0v99h42a125 125 0 0 1 125 125v375a42 42 0 0 1-42 41z m-250-833a83 83 0 0 0-55 145 42 42 0 0 1 13 31v116h84v-116a42 42 0 0 1 13-31 83 83 0 0 0-55-145z m208 417a42 42 0 0 0-41-42h-334a42 42 0 0 0-41 42v41h416z m0 125h-416v208h416z" horiz-adv-x="1000" />

<glyph glyph-name="circle-layer" unicode="&#xeac8;" d="M625 767a292 292 0 0 1-287-239 250 250 0 0 1-130-195 208 208 0 1 1 275-275 250 250 0 0 1 195 129 292 292 0 0 1-53 580z m-208-643c0-4 0-9-3-13a125 125 0 1 0-152 152l12 4a122 122 0 0 0 143-143z m208 153a75 75 0 0 0-2-8 156 156 0 0 0-7-23 167 167 0 0 0-113-100c0 8 0 15-2 22s0 12 0 17-5 16-8 24-3 10-5 15a175 175 0 0 1-12 23c0 3-4 8-6 11a221 221 0 0 1-25 31l-9 7a230 230 0 0 1-22 18 121 121 0 0 1-14 8 167 167 0 0 1-21 11 97 97 0 0 1-17 5 130 130 0 0 1-21 7c-6 0-12 0-19 2l-25 3a167 167 0 0 0 100 113 136 136 0 0 0 22 7l8 2a156 156 0 0 0 31 3 167 167 0 0 0 167-167 160 160 0 0 0-3-31z m83 6v25a250 250 0 0 1-250 250h-25a208 208 0 1 0 275-275z" horiz-adv-x="1000" />

<glyph glyph-name="modem" unicode="&#xeac9;" d="M895 303a27 27 0 0 1-2 8 37 37 0 0 1-3 7 36 36 0 0 1-5 7l-6 5-4 4-613 354a42 42 0 0 1-42-72l479-276h-553a42 42 0 0 1-42-42v-167a125 125 0 0 1 125-125h542a125 125 0 0 1 125 125v167s-1 3-1 5z m-83-172a42 42 0 0 0-42-41h-541a42 42 0 0 0-41 41v125h625z m-125 0a42 42 0 1 1-42 42 42 42 0 0 1 43-42z" horiz-adv-x="1000" />

<glyph glyph-name="webcam" unicode="&#xeaca;" d="M500 308a125 125 0 1 1-125 125 125 125 0 0 1 125-125z m0 167a42 42 0 1 0-42-42 42 42 0 0 0 42 42z m400-382a417 417 0 0 1-108 178 333 333 0 1 1-584 0 413 413 0 0 1-108-178 125 125 0 0 1 20-109 125 125 0 0 1 101-51h558a125 125 0 0 1 101 51 125 125 0 0 1 20 109z m-400 590a250 250 0 1 0-250-250 250 250 0 0 0 250 250z m313-649a42 42 0 0 0-34-17h-558a42 42 0 0 0-34 17 42 42 0 0 0-7 36 327 327 0 0 0 79 134 333 333 0 0 1 482 0 327 327 0 0 0 79-134 42 42 0 0 0-7-36z" horiz-adv-x="1000" />

<glyph glyph-name="hdd" unicode="&#xeacb;" d="M917 231v2a109 109 0 0 1-4 24l-69 405a125 125 0 0 1-125 105h-440a125 125 0 0 1-123-105l-68-404a109 109 0 0 1-4-24v-2c-1-3-1-7-1-7v-167a125 125 0 0 1 125-125h584a125 125 0 0 1 125 125v167 6z m-679 418a42 42 0 0 0 42 34h441a42 42 0 0 0 42-34l50-301a110 110 0 0 1-21 2h-584a110 110 0 0 1-20-2z m595-591a42 42 0 0 0-41-41h-584a42 42 0 0 0-41 41v164l3 19a42 42 0 0 0 38 26h584a42 42 0 0 0 38-26l3-19z m-125 125a42 42 0 1 1 42-41 42 42 0 0 1-42 41z" horiz-adv-x="1000" />

<glyph glyph-name="monitor" unicode="&#xeacc;" d="M792 767h-584a125 125 0 0 1-125-125v-417a125 125 0 0 1 125-125h110l-24-42a83 83 0 0 1 0-83 83 83 0 0 1 73-42h269a83 83 0 0 1 72 42 83 83 0 0 1 0 83l-24 42h108a125 125 0 0 1 125 125v417a125 125 0 0 1-125 125z m-427-750l52 83h166l50-83z m468 208a42 42 0 0 0-41-42h-584a42 42 0 0 0-41 42v42h666z m0 125h-666v292a42 42 0 0 0 41 41h584a42 42 0 0 0 41-41z" horiz-adv-x="1000" />

<glyph glyph-name="dice-four" unicode="&#xeacd;" d="M625 267a42 42 0 1 1 42-42 42 42 0 0 1-42 42z m-250 250a42 42 0 1 1 42-42 42 42 0 0 1-42 42z m0-250a42 42 0 1 1 42-42 42 42 0 0 1-42 42z m250 250a42 42 0 1 1 42-42 42 42 0 0 1-42 42z m83 250h-416a208 208 0 0 1-209-209v-416a208 208 0 0 1 209-209h416a208 208 0 0 1 209 209v416a208 208 0 0 1-209 209z m125-625a125 125 0 0 0-125-125h-416a125 125 0 0 0-125 125v416a125 125 0 0 0 125 125h416a125 125 0 0 0 125-125z" horiz-adv-x="1000" />

<glyph glyph-name="wifi-router" unicode="&#xeace;" d="M371 142a42 42 0 1 1 42-42 42 42 0 0 1-42 42z m-125 0a42 42 0 1 1 42-42 42 42 0 0 1-42 42z m250 0a42 42 0 1 1 42-42 42 42 0 0 1-42 42z m129 354a42 42 0 0 0 72 0 42 42 0 0 1 57-16 42 42 0 0 1 17 58 125 125 0 0 1-217 0 42 42 0 0 1 71-42z m292 125a292 292 0 0 1-505 0 42 42 0 0 1 15-57 42 42 0 0 1 19-6 42 42 0 0 1 36 21 208 208 0 0 0 361 0 42 42 0 0 1 57-15 42 42 0 0 1 17 57z m-171-354h-42v125a42 42 0 1 1-83 0v-125h-417a125 125 0 0 1-125-125v-84a125 125 0 0 1 125-125h542a125 125 0 0 1 125 125v84a125 125 0 0 1-125 125z m41-209a42 42 0 0 0-41-41h-542a42 42 0 0 0-42 41v84a42 42 0 0 0 42 41h542a42 42 0 0 0 41-41z" horiz-adv-x="1000" />

<glyph glyph-name="dice-five" unicode="&#xeacf;" d="M708 767h-416a208 208 0 0 1-209-209v-416a208 208 0 0 1 209-209h416a208 208 0 0 1 209 209v416a208 208 0 0 1-209 209z m125-625a125 125 0 0 0-125-125h-416a125 125 0 0 0-125 125v416a125 125 0 0 0 125 125h416a125 125 0 0 0 125-125z m-500 83a42 42 0 1 1 42-42 42 42 0 0 1-42 42z m167 167a42 42 0 1 1 42-42 42 42 0 0 1-42 42z m-167 166a42 42 0 1 1 42-41 42 42 0 0 1-42 41z m334-333a42 42 0 1 1 41-42 42 42 0 0 1-41 42z m0 333a42 42 0 1 1 41-41 42 42 0 0 1-41 41z" horiz-adv-x="1000" />

<glyph glyph-name="dice-one" unicode="&#xead0;" d="M708 767h-416a208 208 0 0 1-209-209v-416a208 208 0 0 1 209-209h416a208 208 0 0 1 209 209v416a208 208 0 0 1-209 209z m125-625a125 125 0 0 0-125-125h-416a125 125 0 0 0-125 125v416a125 125 0 0 0 125 125h416a125 125 0 0 0 125-125z m-333 250a42 42 0 1 1 42-42 42 42 0 0 1-42 42z" horiz-adv-x="1000" />

<glyph glyph-name="dice-two" unicode="&#xead1;" d="M375 392a42 42 0 1 1 42-42 42 42 0 0 1-42 42z m333 375h-416a208 208 0 0 1-209-209v-416a208 208 0 0 1 209-209h416a208 208 0 0 1 209 209v416a208 208 0 0 1-209 209z m125-625a125 125 0 0 0-125-125h-416a125 125 0 0 0-125 125v416a125 125 0 0 0 125 125h416a125 125 0 0 0 125-125z m-208 250a42 42 0 1 1 42-42 42 42 0 0 1-42 42z" horiz-adv-x="1000" />

<glyph glyph-name="dice-six" unicode="&#xead2;" d="M375 392a42 42 0 1 1 42-42 42 42 0 0 1-42 42z m0-167a42 42 0 1 1 42-42 42 42 0 0 1-42 42z m0 333a42 42 0 1 1 42-41 42 42 0 0 1-42 41z m250 0a42 42 0 1 1 42-41 42 42 0 0 1-42 41z m83 209h-416a208 208 0 0 1-209-209v-416a208 208 0 0 1 209-209h416a208 208 0 0 1 209 209v416a208 208 0 0 1-209 209z m125-625a125 125 0 0 0-125-125h-416a125 125 0 0 0-125 125v416a125 125 0 0 0 125 125h416a125 125 0 0 0 125-125z m-208 250a42 42 0 1 1 42-42 42 42 0 0 1-42 42z m0-167a42 42 0 1 1 42-42 42 42 0 0 1-42 42z" horiz-adv-x="1000" />

<glyph glyph-name="windy" unicode="&#xead3;" d="M708 225a72 72 0 0 0-36 10 130 130 0 0 1-136 0 72 72 0 0 0-72 0 130 130 0 0 1-136 0 73 73 0 0 0-36-10 42 42 0 0 1 0-83 155 155 0 0 1 79 21 47 47 0 0 0 50 0 156 156 0 0 1 158 0 47 47 0 0 0 50 0 155 155 0 0 1 79-21 42 42 0 0 1 0 83z m0-167a72 72 0 0 0-36 10 130 130 0 0 1-136 0 72 72 0 0 0-72 0 130 130 0 0 1-136 0 73 73 0 0 0-36-10 42 42 0 0 1 0-83 155 155 0 0 1 79 22 47 47 0 0 0 50 0 156 156 0 0 1 158 0 47 47 0 0 0 50 0 155 155 0 0 1 79-22 42 42 0 0 1 0 83z m59 492a292 292 0 0 1-556-80 167 167 0 0 1-128-162 167 167 0 0 1 56-125 42 42 0 0 1 28-10 42 42 0 0 1 31 15 42 42 0 0 1-4 58 80 80 0 0 0-27 62 83 83 0 0 0 83 84 42 42 0 0 1 42 41 208 208 0 0 0 405 67 42 42 0 0 1 33-27 125 125 0 0 0 103-123 122 122 0 0 0-31-83 42 42 0 1 1 62-56 205 205 0 0 1 53 139 208 208 0 0 1-149 200z" horiz-adv-x="1000" />

<glyph glyph-name="swatchbook" unicode="&#xead4;" d="M292 183a42 42 0 1 1 41-41 42 42 0 0 1-41 41z m502 167l51 51a125 125 0 0 1 0 177l-117 117a125 125 0 0 1-177 0l-51-51a125 125 0 0 1-125 123h-167a125 125 0 0 1-125-125v-584a125 125 0 0 1 125-125h584a125 125 0 0 1 125 125v167a125 125 0 0 1-123 125z m-377-292a42 42 0 0 0-42-41h-167a42 42 0 0 0-41 41v584a42 42 0 0 0 41 41h167a42 42 0 0 0 42-41z m83 469l110 110a42 42 0 0 0 59 0l118-120a42 42 0 0 0 0-59l-120-120-167-165z m333-469a42 42 0 0 0-41-41h-299a130 130 0 0 1 7 38l211 212h81a42 42 0 0 0 41-42z" horiz-adv-x="1000" />
</font>
</defs>
</svg>
