<?xml version="1.0" standalone="no"?>
<!DOCTYPE svg PUBLIC "-//W3C//DTD SVG 1.1//EN" "http://www.w3.org/Graphics/SVG/1.1/DTD/svg11.dtd">
<svg xmlns="http://www.w3.org/2000/svg">
<metadata>Iconscout</metadata>
<defs>
<font id="unicons-13" horiz-adv-x="1000" >
<font-face font-family="unicons-13" font-weight="400" font-stretch="normal" units-per-em="1000" ascent="850" descent="-150" />
<missing-glyph horiz-adv-x="1000" />
<glyph glyph-name="telescope" unicode="&#xeb12;" d="M912 534l-41 161a125 125 0 0 1-155 88l-80-21a42 42 0 0 1-30-52l11-41-442-117a42 42 0 0 1-30-51l11-42-42-11a42 42 0 0 1 11-83 45 45 0 0 1 10 0l42 11 11-41a42 42 0 0 1 19-25 42 42 0 0 1 21-6 31 31 0 0 1 11 0l136 43v-18a121 121 0 0 1 13-53l-209-208a42 42 0 0 1 59-60l208 209 12-5v-258a42 42 0 0 1 83 0v258a105 105 0 0 1 12 5l209-209a42 42 0 1 1 58 60l-208 208a129 129 0 0 1 13 53v84l56 15 11-42a42 42 0 0 1 41-31h11l81 22a125 125 0 0 1 87 157z m-370-205a42 42 0 0 0-12-29 42 42 0 0 0-29-11 42 42 0 0 0-29 12 42 42 0 0 0-12 29v42l82 20z m-284 73l-22 80 403 108 11-42 10-41z m570 79a42 42 0 0 0-25-20l-42-11-33 121-20 81-11 41 42 11a42 42 0 0 0 51-29l42-162a42 42 0 0 0-4-32z" horiz-adv-x="1000" />

<glyph glyph-name="sperms" unicode="&#xeb13;" d="M461 13a83 83 0 0 0-27 20 103 103 0 0 0-28 47 175 175 0 0 1-55 86 149 149 0 0 1-41 137 137 137 0 0 1-192 14 137 137 0 0 1 15-192 161 161 0 0 1 92-46h15a119 119 0 0 1 64 18 85 85 0 0 0 21-39 186 186 0 0 1 50-83 178 178 0 0 1 50-37 42 42 0 0 1 18-4 42 42 0 0 1 19 79z m-198 157a36 36 0 0 0-29-8 75 75 0 0 0-44 21c-24 24-30 58-15 74a34 34 0 0 0 23 8 75 75 0 0 0 52-22 75 75 0 0 0 23-44 36 36 0 0 0-10-29z m625 255a90 90 0 0 0-38 24 103 103 0 0 0-27 48 175 175 0 0 1-55 85 149 149 0 0 1-44 137 137 137 0 0 1-191 15 137 137 0 0 1 15-192 161 161 0 0 1 94-47h15a119 119 0 0 1 63 19 85 85 0 0 0 22-39 189 189 0 0 1 50-83 182 182 0 0 1 71-45 52 52 0 0 1 13-2 42 42 0 0 1 39 28 42 42 0 0 1-27 52z m-208 161a36 36 0 0 0-29-8 75 75 0 0 0-44 22c-24 23-31 58-15 74a34 34 0 0 0 23 8 75 75 0 0 0 52-22 75 75 0 0 0 23-44 36 36 0 0 0-10-30z m225-588a185 185 0 0 1-135 135 133 133 0 0 0-58 34 122 122 0 0 0-33 57 194 194 0 0 1-137 136 122 122 0 0 0-58 33 125 125 0 0 0-34 58 195 195 0 0 1-41 77 164 164 0 0 1 8 63 198 198 0 0 1-59 117 199 199 0 0 1-117 59 143 143 0 0 1-116-42 143 143 0 0 1-42-116 198 198 0 0 1 59-116 199 199 0 0 1 117-60h18a141 141 0 0 1 83 25 110 110 0 0 0 13-29 213 213 0 0 1 150-150 109 109 0 0 0 77-76 213 213 0 0 1 150-150 107 107 0 0 0 75-78 117 117 0 0 1 6-19 42 42 0 0 1 37-23 50 50 0 0 1 18 5 42 42 0 0 1 20 55s-1 4-1 5z m-587 534c-26-27-80-17-117 19a116 116 0 0 0-34 67 61 61 0 0 0 14 50 58 58 0 0 0 42 15 113 113 0 0 0 76-34 116 116 0 0 0 34-67 61 61 0 0 0-15-50z" horiz-adv-x="1000" />

<glyph glyph-name="game-structure" unicode="&#xeb14;" d="M875 100h-83v125a42 42 0 0 1-42 42h-208v113l47-25a42 42 0 0 1 60 44l-16 98 71 71a42 42 0 0 1 11 42 42 42 0 0 1-34 28l-98 15-46 90a42 42 0 0 1-75 0l-45-90-100-14a42 42 0 0 1-34-29 42 42 0 0 1 11-41l73-71-16-99a42 42 0 0 1 60-44l47 25v-113h-208a42 42 0 0 1-42-42v-125h-83a42 42 0 0 1-42-42v-83a42 42 0 0 1 84 0v42h166v-42a42 42 0 0 1 84 0v83a42 42 0 0 1-42 42h-83v83h416v-83h-83a42 42 0 0 1-42-42v-83a42 42 0 0 1 84 0v42h166v-42a42 42 0 0 1 84 0v83a42 42 0 0 1-42 42z m-375 390a42 42 0 0 1-20-5l-33-17 6 37a42 42 0 0 1-12 37l-27 27 38 5a42 42 0 0 1 31 23l17 34 17-34a42 42 0 0 1 31-23l38-5-27-27a42 42 0 0 1-12-37l6-37-33 17a42 42 0 0 1-20 5z" horiz-adv-x="1000" />

<glyph glyph-name="ticket" unicode="&#xeb15;" d="M375 433a42 42 0 0 1-42-41v-84a42 42 0 0 1 84 0v84a42 42 0 0 1-42 41z m500-41a42 42 0 0 1 42 41v167a42 42 0 0 1-42 42h-750a42 42 0 0 1-42-42v-167a42 42 0 0 1 42-41 42 42 0 0 0 0-84 42 42 0 0 1-42-41v-167a42 42 0 0 1 42-42h750a42 42 0 0 1 42 42v167a42 42 0 0 1-42 41 42 42 0 0 0 0 84z m-42 76a125 125 0 0 1 0-235v-91h-416a42 42 0 0 1-84 0h-166v91a125 125 0 0 1 0 235v90h166a42 42 0 0 1 84 0h416z" horiz-adv-x="1000" />

<glyph glyph-name="presentation-play" unicode="&#xeb16;" d="M875 267h-42v416h42a42 42 0 0 1 0 84h-750a42 42 0 0 1 0-84h42v-416h-42a42 42 0 0 1 0-84h333v-48l-189-125a42 42 0 0 1 23-77 39 39 0 0 1 23 7l143 95v-60a42 42 0 0 1 84 0v60l143-95a39 39 0 0 1 23-7 42 42 0 0 1 23 77l-189 125v48h333a42 42 0 0 1 0 84z m-125 0h-500v416h500z m-350 72a72 72 0 0 1 74 0l125 73a73 73 0 0 1 0 125l-125 72a72 72 0 0 1-74 0 71 71 0 0 1-36-63v-145a71 71 0 0 1 36-62z m48 191l94-55-95-55z" horiz-adv-x="1000" />

<glyph glyph-name="book-open" unicode="&#xeb17;" d="M882 764a546 546 0 0 1-90 8 539 539 0 0 1-292-85 539 539 0 0 1-292 83 546 546 0 0 1-90-8 42 42 0 0 1-35-42v-500a42 42 0 0 1 49-41 454 454 0 0 0 344-80l5-3h4a38 38 0 0 1 30 0h4l5 3a454 454 0 0 0 344 84 42 42 0 0 1 49 42v500a42 42 0 0 1-35 39z m-424-554a536 536 0 0 1-250 62h-41v417a362 362 0 0 0 41 0 452 452 0 0 0 250-75z m375 60h-41a536 536 0 0 1-250-61v405a452 452 0 0 0 250 75 362 362 0 0 0 41 0z m49-172a546 546 0 0 1-90 7 539 539 0 0 1-292-85 539 539 0 0 1-292 85 546 546 0 0 1-90-7 42 42 0 0 1-35-48 42 42 0 0 1 49-33 454 454 0 0 0 344-80 42 42 0 0 1 48 0 454 454 0 0 0 344 80 42 42 0 0 1 49 33 42 42 0 0 1-35 48z" horiz-adv-x="1000" />

<glyph glyph-name="notebooks" unicode="&#xeb18;" d="M875 600a42 42 0 0 1-42-42v-416a125 125 0 0 0-125-125h-416a42 42 0 0 1 0-84h416a208 208 0 0 1 209 209v416a42 42 0 0 1-42 42z m-125-375v417a125 125 0 0 1-125 125h-417a125 125 0 0 1-125-125v-417a125 125 0 0 1 125-125h417a125 125 0 0 1 125 125z m-333 458h83v-202l-15 12a42 42 0 0 1-53 0l-15-12z m-250-458v417a42 42 0 0 0 41 41h125v-291a42 42 0 0 1 69-32l56 47 57-47a42 42 0 0 1 27-10 44 44 0 0 1 17 4 42 42 0 0 1 24 38v291h42a42 42 0 0 0 42-41v-417a42 42 0 0 0-42-42h-417a42 42 0 0 0-41 42z" horiz-adv-x="1000" />

<glyph glyph-name="award-alt" unicode="&#xeb19;" d="M500 808a292 292 0 0 1-208-495v-380a42 42 0 0 1 60-37l148 74 148-74a42 42 0 0 1 19-4 42 42 0 0 1 22 6 42 42 0 0 1 19 35v380a292 292 0 0 1-208 495z m125-807l-106 53a42 42 0 0 1-38 0l-106-53v252a292 292 0 0 1 83-25v-45a42 42 0 0 1 84 0v45a292 292 0 0 1 83 25z m-125 307a208 208 0 1 0 208 209 208 208 0 0 0-208-209z" horiz-adv-x="1000" />

<glyph glyph-name="bug" unicode="&#xeb1a;" d="M792 267h83a42 42 0 0 1 0 83h-83v42a215 215 0 0 1-9 56 208 208 0 0 1 134 194 42 42 0 0 1-84 0 125 125 0 0 0-89-120 208 208 0 0 1-77 61 108 108 0 0 1 0 17 167 167 0 0 1-334 0 108 108 0 0 1 0-17 208 208 0 0 1-79-61 125 125 0 0 0-87 120 42 42 0 0 1-84 0 208 208 0 0 1 134-194 215 215 0 0 1-9-56v-42h-83a42 42 0 0 1 0-83h83v-42a292 292 0 0 1 6-57 208 208 0 0 1-131-193 42 42 0 0 1 84 0 125 125 0 0 0 75 114 292 292 0 0 1 516 0 125 125 0 0 0 75-114 42 42 0 0 1 84 0 208 208 0 0 1-131 193 292 292 0 0 1 6 57z m-334-246a208 208 0 0 0-166 204v167a125 125 0 0 0 125 125h41z m-41 579a83 83 0 0 0 166 0z m291-375a208 208 0 0 0-166-204v496h41a125 125 0 0 0 125-125z" horiz-adv-x="1000" />

<glyph glyph-name="browser" unicode="&#xeb1b;" d="M792 767h-417a125 125 0 0 1-125-125v-42h-42a125 125 0 0 1-125-125v-417a125 125 0 0 1 125-125h417a125 125 0 0 1 125 125v42h42a125 125 0 0 1 125 125v417a125 125 0 0 1-125 125z m-125-709a42 42 0 0 0-42-41h-417a42 42 0 0 0-41 41v292h500z m0 375h-500v42a42 42 0 0 0 41 42h417a42 42 0 0 0 42-42z m166-208a42 42 0 0 0-41-42h-42v292a125 125 0 0 1-7 42h90z m0 375h-500v42a42 42 0 0 0 42 41h417a42 42 0 0 0 41-41z" horiz-adv-x="1000" />

<glyph glyph-name="rss-alt" unicode="&#xeb1c;" d="M120 147a125 125 0 1 1 177-177 125 125 0 0 1 0 177 128 128 0 0 1-177 0z m118-118a42 42 0 0 0-59 0 42 42 0 0 0 0 59 42 42 0 0 0 59 0 42 42 0 0 0 0-59z m-30 321a42 42 0 0 1 0-83 208 208 0 0 0 209-209 42 42 0 0 1 83 0 292 292 0 0 1-292 292z m0 167a42 42 0 0 1 0-84 375 375 0 0 0 375-375 42 42 0 0 1 84 0 458 458 0 0 1-459 459z" horiz-adv-x="1000" />

<glyph glyph-name="building" unicode="&#xeb1d;" d="M583 517h42a42 42 0 0 1 0 83h-42a42 42 0 0 1 0-83z m0-167h42a42 42 0 0 1 0 83h-42a42 42 0 0 1 0-83z m-208 167h42a42 42 0 0 1 0 83h-42a42 42 0 0 1 0-83z m0-167h42a42 42 0 0 1 0 83h-42a42 42 0 0 1 0-83z m500-333h-42v708a42 42 0 0 1-41 42h-584a42 42 0 0 1-41-42v-708h-42a42 42 0 0 1 0-84h750a42 42 0 0 1 0 84z m-333 0h-84v166h84z m208 0h-125v208a42 42 0 0 1-42 42h-166a42 42 0 0 1-42-42v-208h-125v666h500z" horiz-adv-x="1000" />

<glyph glyph-name="lamp" unicode="&#xeb1e;" d="M750 734a42 42 0 0 1-42 33h-416a42 42 0 0 1-42-33l-83-375a42 42 0 0 1 8-35 42 42 0 0 1 33-16h165a344 344 0 0 0 2-41 372 372 0 0 0-107-263 42 42 0 0 1 30-71h405a42 42 0 0 1 29 71 372 372 0 0 0-107 263 344 344 0 0 0 3 41h39v-83a42 42 0 0 1 83 0v83h42a42 42 0 0 1 32 16 42 42 0 0 1 9 35z m-366-717a454 454 0 0 1 74 250c0 13 0 28-2 41h88c0-13-2-28-2-41a454 454 0 0 1 74-250z m-125 375l66 291h350l65-291z" horiz-adv-x="1000" />

<glyph glyph-name="heart-rate" unicode="&#xeb1f;" d="M875 392h-164a33 33 0 0 1-9 0h-7a54 54 0 0 1-6-4 70 70 0 0 1-7-5 42 42 0 0 1-4-6 55 55 0 0 1-5-8l-66-184-174 471a42 42 0 0 1-78 0l-97-264h-133a42 42 0 0 1 0-84h179a36 36 0 0 1 7 5 70 70 0 0 1 7 5l3 5a42 42 0 0 1 5 8l68 189 173-476a42 42 0 0 1 39-27 42 42 0 0 1 39 27l96 264h134a42 42 0 0 1 0 84z" horiz-adv-x="1000" />

<glyph glyph-name="swimmer" unicode="&#xeb20;" d="M708 463a83 83 0 1 1-83 84 83 83 0 0 1 83-84z m-595-193a125 125 0 0 0 24-10 169 169 0 0 1 171 0 109 109 0 0 0 106 0l9-5a172 172 0 0 1 161 6 109 109 0 0 0 107 0 177 177 0 0 1 86-23 167 167 0 0 1 84 23 125 125 0 0 0 24 10 42 42 0 1 1-22 79 201 201 0 0 1-42-18 88 88 0 0 0-87 0 193 193 0 0 1-189 0 105 105 0 0 0-12-5l65 65a31 31 0 0 1 3 6 42 42 0 0 1 5 7 54 54 0 0 1 0 8 44 44 0 0 1 0 7 47 47 0 0 1 0 8 44 44 0 0 1 0 8 63 63 0 0 1-4 7 29 29 0 0 1-4 7l-128 138a46 46 0 0 1-12 10 33 33 0 0 1-8 0 22 22 0 0 1-7 0 37 37 0 0 1-18 2l-147-55a42 42 0 0 1-25-53 42 42 0 0 1 53-25l122 44 83-88-79-79a193 193 0 0 1-164-12 88 88 0 0 0-88 0 201 201 0 0 1-41 18 42 42 0 1 1-24-79z m750-129a201 201 0 0 1-42-18 88 88 0 0 0-87 0 193 193 0 0 1-189 0 88 88 0 0 0-89 0 193 193 0 0 1-189 0 88 88 0 0 0-87 0 201 201 0 0 1-42 18 42 42 0 1 1-24-79 125 125 0 0 0 24-11 169 169 0 0 1 170 0 109 109 0 0 0 107 0 173 173 0 0 1 172 0 109 109 0 0 0 106 0 177 177 0 0 1 87-23 167 167 0 0 1 83 23 125 125 0 0 0 24 11 42 42 0 1 1-24 80z" horiz-adv-x="1000" />

<glyph glyph-name="pump" unicode="&#xeb21;" d="M856 588l-64 64-59 59a42 42 0 0 1-59-59l41-42-34-104a125 125 0 0 1 30-128l123-125v-195a42 42 0 0 0-83 0v84a125 125 0 0 1-125 125h-43v375a125 125 0 0 1-125 125h-250a125 125 0 0 1-125-125v-584a125 125 0 0 1 125-125h250a125 125 0 0 1 125 125v125h42a42 42 0 0 0 42-41v-84a125 125 0 0 1 250 0v382a208 208 0 0 1-61 148z m-356-530a42 42 0 0 0-42-41h-250a42 42 0 0 0-41 41v292h333z m0 375h-333v209a42 42 0 0 0 41 41h250a42 42 0 0 0 42-41z m333-59l-64 64a42 42 0 0 0-10 42l21 64 17-16a125 125 0 0 0 36-88z" horiz-adv-x="1000" />

<glyph glyph-name="crockery" unicode="&#xeb22;" d="M750 344v381a42 42 0 0 1-83 0v-381a173 173 0 0 1-125-167c0-85 63-242 166-242s167 157 167 242a173 173 0 0 1-125 167z m-42-327c-33 0-83 94-83 158a88 88 0 0 0 83 92 88 88 0 0 0 84-92c0-64-50-158-84-158z m-291 750a42 42 0 0 1-42-42v-227l-42-28v255a42 42 0 0 1-83 0v-255l-42 28v227a42 42 0 0 1-83 0v-250a42 42 0 0 1 19-35l106-71v-394a42 42 0 0 1 83 0v394l107 71a42 42 0 0 1 18 35v250a42 42 0 0 1-41 42z" horiz-adv-x="1000" />

<glyph glyph-name="message" unicode="&#xeb23;" d="M848 462l-584 291a125 125 0 0 1-170-162l100-224a44 44 0 0 0 0-34l-100-224a125 125 0 0 1 114-176 131 131 0 0 1 57 14l583 291a125 125 0 0 1 0 224z m-38-149l-583-292a42 42 0 0 0-56 54l99 224a83 83 0 0 1 4 9h287a42 42 0 0 1 0 84h-287a83 83 0 0 1-4 9l-99 224a42 42 0 0 0 56 54l583-292a42 42 0 0 0 0-74z" horiz-adv-x="1000" />

<glyph glyph-name="bed-double" unicode="&#xeb24;" d="M833 704h-666a125 125 0 0 1-125-125v-541a42 42 0 0 1 41-42h167a42 42 0 0 1 35 19l71 106h288l71-106a42 42 0 0 1 35-19h167a42 42 0 0 1 41 42v541a125 125 0 0 1-125 125z m42-625h-103l-71 104a42 42 0 0 1-34 21h-334a42 42 0 0 1-34-19l-72-106h-102v209h750z m-583 292v42a42 42 0 0 0 41 41h84a42 42 0 0 0 41-41v-42z m250 0v42a42 42 0 0 0 41 41h84a42 42 0 0 0 41-41v-42z m333 0h-83v42a125 125 0 0 1-125 125h-84a125 125 0 0 1-83-33 125 125 0 0 1-83 33h-84a125 125 0 0 1-125-125v-42h-83v208a42 42 0 0 0 42 42h666a42 42 0 0 0 42-42z" horiz-adv-x="1000" />

<glyph glyph-name="rope-way" unicode="&#xeb25;" d="M792 579h-250v104h192a42 42 0 0 1 0 84h-468a42 42 0 1 1 0-84h192v-104h-250a125 125 0 0 1-125-125v-396a125 125 0 0 1 125-125h584a125 125 0 0 1 125 125v396a125 125 0 0 1-125 125z m-334-562h-250a42 42 0 0 0-41 41v157h291a21 21 0 0 1 0-6v-187a22 22 0 0 1 0-5z m375 41a42 42 0 0 0-41-41h-250a22 22 0 0 1 0 5v187a21 21 0 0 1 0 6h291z m0 240h-666v156a42 42 0 0 0 41 42h584a42 42 0 0 0 41-42z" horiz-adv-x="1000" />

<glyph glyph-name="water-glass" unicode="&#xeb26;" d="M753 558a42 42 0 0 1-45-38l-14-190a111 111 0 0 0-50 33 42 42 0 0 1-63 0 110 110 0 0 0-162 0 42 42 0 0 1-63 0 113 113 0 0 0-50-33l-14 190a42 42 0 0 1-45 38 42 42 0 0 1-39-45l36-464a125 125 0 0 1 125-116h263a125 125 0 0 1 125 116l35 464a42 42 0 0 1-39 45z m-81-503a42 42 0 0 0-41-38h-262a42 42 0 0 0-42 38l-14 191a199 199 0 0 1 75 33 194 194 0 0 1 225 0 199 199 0 0 1 75-33z m-172 378a136 136 0 0 1 135 136c0 114-107 188-112 191a42 42 0 0 1-46 0c-5-4-112-77-112-191a136 136 0 0 1 135-136z m0 238a150 150 0 0 0 52-102 52 52 0 0 0-104 0 153 153 0 0 0 52 102z" horiz-adv-x="1000" />

<glyph glyph-name="rotate-360" unicode="&#xeb27;" d="M500 600c-237 0-417-90-417-208 0-102 133-183 322-204l-18-17a42 42 0 0 1 0-59 42 42 0 0 1 59 0l84 83a42 42 0 0 1 8 14 42 42 0 0 1 0 32 42 42 0 0 1-8 14l-84 83a42 42 0 0 1-59-59l5-5c-142 20-225 76-225 118 0 51 130 125 333 125s333-74 333-125c0-35-60-84-175-109a42 42 0 0 1-33-49 42 42 0 0 1 50-32c152 33 242 104 242 190 0 118-179 208-417 208z" horiz-adv-x="1000" />

<glyph glyph-name="feedback" unicode="&#xeb28;" d="M917 808h-292a102 102 0 0 1-100-83l-39-210a102 102 0 0 1 22-84 103 103 0 0 1 79-36h121l-10-28a136 136 0 0 1 125-184 42 42 0 0 1 38 25l94 211a42 42 0 0 1 3 14v334a42 42 0 0 1-41 41z m-42-363l-76-172a55 55 0 0 0-19 16 51 51 0 0 0-6 49l16 41a70 70 0 0 1-8 66 71 71 0 0 1-59 30h-137a19 19 0 0 0-15 7 21 21 0 0 0-4 15l39 208a18 18 0 0 0 19 20h250z m-461-139h-120l10 28a136 136 0 0 1-127 183 42 42 0 0 1-38-25l-94-211a42 42 0 0 1-3-16v-334a42 42 0 0 1 41-41h292a102 102 0 0 1 100 83l39 208a102 102 0 0 1-22 84 103 103 0 0 1-78 41z m-20-316a18 18 0 0 0-19-15h-250v280l76 173a55 55 0 0 0 19-17 51 51 0 0 0 6-48l-16-42a70 70 0 0 1 8-66 71 71 0 0 1 59-31h137a19 19 0 0 0 15-6 21 21 0 0 0 3-16z" horiz-adv-x="1000" />

<glyph glyph-name="bed" unicode="&#xeb29;" d="M292 329a125 125 0 1 1-125 125 125 125 0 0 1 125-125z m0 167a42 42 0 1 0-42-42 42 42 0 0 0 42 42z m541 83h-333a42 42 0 0 1-42-41v-250h-333v333a42 42 0 0 1-83 0v-542a42 42 0 0 1 83 0v125h750v-125a42 42 0 0 1 83 0v375a125 125 0 0 1-125 125z m42-291h-333v208h291a42 42 0 0 0 42-42z" horiz-adv-x="1000" />

<glyph glyph-name="utensils" unicode="&#xeb2a;" d="M792 767a42 42 0 0 1-42-42v-227l-42-28v255a42 42 0 0 1-83 0v-255l-42 28v227a42 42 0 0 1-83 0v-250a42 42 0 0 1 19-35l106-71v-394a42 42 0 0 1 83 0v394l107 71a42 42 0 0 1 18 35v250a42 42 0 0 1-41 42z m-417 0a208 208 0 0 1-208-209v-250a42 42 0 0 1 41-41h125v-292a42 42 0 0 1 84 0v750a42 42 0 0 1-42 42z m-42-417h-83v208a125 125 0 0 0 83 118z" horiz-adv-x="1000" />

<glyph glyph-name="align-center-h" unicode="&#xeb2b;" d="M913 366a42 42 0 0 1-8 14l-105 104a42 42 0 0 1-59-59l34-33h-108a42 42 0 0 1 0-84h108l-34-33a42 42 0 0 1 0-59 42 42 0 0 1 59 0l105 104a42 42 0 0 1 8 14 42 42 0 0 1 0 32z m-580 26h-108l34 33a42 42 0 0 1-59 59l-105-104a42 42 0 0 1-8-14 42 42 0 0 1 0-32 42 42 0 0 1 8-14l105-104a42 42 0 0 1 59 0 42 42 0 0 1 0 59l-34 33h108a42 42 0 0 1 0 84z m167 166a42 42 0 0 1-42-41v-334a42 42 0 0 1 84 0v334a42 42 0 0 1-42 41z" horiz-adv-x="1000" />

<glyph glyph-name="baby-carriage" unicode="&#xeb2c;" d="M792 183a125 125 0 1 1 125-125 125 125 0 0 1-125 125z m0-166a42 42 0 1 0 41 41 42 42 0 0 0-41-41z m-417 166a125 125 0 1 1 125-125 125 125 0 0 1-125 125z m0-166a42 42 0 1 0 42 41 42 42 0 0 0-42-41z m542 479a271 271 0 0 1-271 271h-21a42 42 0 0 1-42-42v-208h-270l-52 139a42 42 0 0 1-39 27h-97a42 42 0 0 1 0-83h68l52-140 22-57v-4a268 268 0 0 1 254-174h125a270 270 0 0 1 271 271z m-139-133a186 186 0 0 0-132-55h-125a186 186 0 0 0-174 117 6 6 0 0 0 0 3l-3 5h479a180 180 0 0 0-45-70z m-111 154v166a187 187 0 0 0 166-166z" horiz-adv-x="1000" />

<glyph glyph-name="post-stamp" unicode="&#xeb2d;" d="M938 621a42 42 0 0 1 41 42v125a42 42 0 0 1-41 41h-125a42 42 0 0 1-42-41 21 21 0 0 0-42 0 42 42 0 0 1-41 41h-125a42 42 0 0 1-42-41 21 21 0 0 0-42 0 42 42 0 0 1-41 41h-125a42 42 0 0 1-42-41 21 21 0 0 0-42 0 42 42 0 0 1-41 41h-125a42 42 0 0 1-42-41v-125a42 42 0 0 1 42-42 21 21 0 0 0 0-42 42 42 0 0 1-42-41v-125a42 42 0 0 1 42-42 21 21 0 0 0 0-42 42 42 0 0 1-42-41v-125a42 42 0 0 1 42-42 21 21 0 0 0 0-42 42 42 0 0 1-42-41v-125a42 42 0 0 1 42-42h125a42 42 0 0 1 41 42 21 21 0 0 0 42 0 42 42 0 0 1 42-42h125a42 42 0 0 1 41 42 21 21 0 0 0 42 0 42 42 0 0 1 42-42h125a42 42 0 0 1 41 42 21 21 0 0 0 42 0 42 42 0 0 1 42-42h125a42 42 0 0 1 41 42v125a42 42 0 0 1-41 41 21 21 0 0 0 0 42 42 42 0 0 1 41 42v125a42 42 0 0 1-41 41 21 21 0 0 0 0 42 42 42 0 0 1 41 42v125a42 42 0 0 1-41 41 21 21 0 0 0 0 42z m-42 74a104 104 0 0 1 0-190v-60a104 104 0 0 1 0-190v-60a104 104 0 0 1 0-190v-51h-51a104 104 0 0 1-190 0h-60a104 104 0 0 1-190 0h-60a104 104 0 0 1-190 0h-51v51a104 104 0 0 1 0 190v60a104 104 0 0 1 0 190v60a104 104 0 0 1 0 190v51h51a104 104 0 0 1 190 0h60a104 104 0 0 1 190 0h60a104 104 0 0 1 190 0h51z m-396-53a292 292 0 0 1 0-584 289 289 0 0 1 146 40 42 42 0 1 1-42 72 208 208 0 1 0 104 180v-21a35 35 0 0 0-34-34 35 35 0 0 0-35 34v118a42 42 0 0 1-74 25 135 135 0 0 1-65 17 139 139 0 0 1 0-278 137 137 0 0 1 90 34 118 118 0 0 1 202 84v21a292 292 0 0 1-292 292z m0-347a55 55 0 1 0 55 55 55 55 0 0 0-55-55z" horiz-adv-x="1000" />

<glyph glyph-name="arrow-growth" unicode="&#xeb2e;" d="M913 574a42 42 0 0 1-22 23 42 42 0 0 1-16 3h-208a42 42 0 0 1 0-83h108l-233-233-137 137a42 42 0 0 1-60 0l-250-250a42 42 0 0 1 0-59 42 42 0 0 1 60 0l220 221 137-138a42 42 0 0 1 59 0l262 263v-108a42 42 0 0 1 84 0v208a42 42 0 0 1-4 16z" horiz-adv-x="1000" />

<glyph glyph-name="enter" unicode="&#xeb2f;" d="M792 600a42 42 0 0 1-42-42v-166a42 42 0 0 0-42-42h-399l54 54a42 42 0 0 1-59 59l-125-125a42 42 0 0 1-9-14 42 42 0 0 1 0-31 42 42 0 0 1 9-14l125-125a42 42 0 0 1 59 0 42 42 0 0 1 0 59l-54 54h399a125 125 0 0 1 125 125v166a42 42 0 0 1-41 42z" horiz-adv-x="1000" />

<glyph glyph-name="arrow" unicode="&#xeb30;" d="M405 588a42 42 0 0 1-60 0l-208-208a42 42 0 0 1 0-60l208-208a42 42 0 0 1 60 0 42 42 0 0 1 0 59l-180 179 180 179a42 42 0 0 1 0 59z m458-208l-208 208a42 42 0 0 1-60-59l180-179-180-179a42 42 0 0 1 0-59 42 42 0 0 1 60 0l208 208a42 42 0 0 1 0 60z" horiz-adv-x="1000" />

<glyph glyph-name="arrows-shrink-h" unicode="&#xeb31;" d="M738 380l-104 104a42 42 0 0 1-59-59l33-33h-216l33 33a42 42 0 0 1-59 59l-104-104a42 42 0 0 1-9-14 42 42 0 0 1 0-32 42 42 0 0 1 9-14l104-104a42 42 0 0 1 59 0 42 42 0 0 1 0 59l-33 33h216l-33-33a42 42 0 0 1 0-59 42 42 0 0 1 59 0l104 104a42 42 0 0 1 9 14 42 42 0 0 1 0 32 42 42 0 0 1-9 14z m-613 220a42 42 0 0 1-42-42v-416a42 42 0 0 1 84 0v416a42 42 0 0 1-42 42z m750 0a42 42 0 0 1-42-42v-416a42 42 0 0 1 84 0v416a42 42 0 0 1-42 42z" horiz-adv-x="1000" />

<glyph glyph-name="arrows-resize" unicode="&#xeb32;" d="M913 366a42 42 0 0 1-8 14l-105 104a42 42 0 0 1-59-59l34-33h-233v125a42 42 0 0 1-84 0v-125h-233l34 33a42 42 0 0 1-59 59l-105-104a42 42 0 0 1-8-14 42 42 0 0 1 0-32 42 42 0 0 1 8-14l105-104a42 42 0 0 1 59 0 42 42 0 0 1 0 59l-34 33h233v-125a42 42 0 0 1 84 0v125h233l-34-33a42 42 0 0 1 0-59 42 42 0 0 1 59 0l105 104a42 42 0 0 1 8 14 42 42 0 0 1 0 32z" horiz-adv-x="1000" />

<glyph glyph-name="presentation" unicode="&#xeb33;" d="M875 267h-42v416h42a42 42 0 0 1 0 84h-750a42 42 0 0 1 0-84h42v-416h-42a42 42 0 0 1 0-84h333v-48l-189-125a42 42 0 0 1 23-77 39 39 0 0 1 23 7l143 95v-60a42 42 0 0 1 84 0v60l143-95a39 39 0 0 1 23-7 42 42 0 0 1 23 77l-189 125v48h333a42 42 0 0 1 0 84z m-125 0h-500v416h500z" horiz-adv-x="1000" />

<glyph glyph-name="arrows-h" unicode="&#xeb34;" d="M913 366a42 42 0 0 1-8 14l-167 166a42 42 0 1 1-59-59l96-95h-550l96 95a42 42 0 1 1-59 59l-167-166a42 42 0 0 1-8-14 42 42 0 0 1 0-32 42 42 0 0 1 8-14l167-166a42 42 0 0 1 59 0 42 42 0 0 1 0 59l-96 95h550l-96-95a42 42 0 0 1 0-59 42 42 0 0 1 59 0l167 166a42 42 0 0 1 8 14 42 42 0 0 1 0 32z" horiz-adv-x="1000" />

<glyph glyph-name="scaling-right" unicode="&#xeb35;" d="M913 741a42 42 0 0 1-22 22 42 42 0 0 1-16 4h-167a42 42 0 0 1 0-84h67l-275-274-88 89a42 42 0 0 1-59-60l88-88-274-275v67a42 42 0 0 1-84 0v-167a42 42 0 0 1 4-16 42 42 0 0 1 22-22 42 42 0 0 1 16-4h167a42 42 0 0 1 0 84h-67l275 274 88-88a42 42 0 0 1 30-13 42 42 0 0 1 30 13 42 42 0 0 1 0 59l-89 88 274 275v-67a42 42 0 0 1 84 0v167a42 42 0 0 1-4 16z" horiz-adv-x="1000" />

<glyph glyph-name="import" unicode="&#xeb36;" d="M875 267a42 42 0 0 1-42-42v-167a42 42 0 0 0-41-41h-584a42 42 0 0 0-41 41v167a42 42 0 0 1-84 0v-167a125 125 0 0 1 125-125h584a125 125 0 0 1 125 125v167a42 42 0 0 1-42 42z m-405-72a42 42 0 0 1 14-8 39 39 0 0 1 32 0 42 42 0 0 1 14 8l166 167a42 42 0 0 1-59 59l-95-96v400a42 42 0 0 1-84 0v-400l-95 96a42 42 0 1 1-59-59z" horiz-adv-x="1000" />

<glyph glyph-name="arrow-circle-down" unicode="&#xeb37;" d="M470 195a42 42 0 0 1 14-8 42 42 0 0 1 32 0 42 42 0 0 1 14 8l125 125a42 42 0 0 1-60 60l-53-55v150a42 42 0 0 1-84 0v-150l-53 55a42 42 0 0 1-60 0 42 42 0 0 1 0-60z m30-262a417 417 0 1 1-417 417 417 417 0 0 1 417-417z m0 750a333 333 0 1 0-333-333 333 333 0 0 0 333 333z" horiz-adv-x="1000" />

<glyph glyph-name="angle-double-down" unicode="&#xeb38;" d="M470 373a42 42 0 0 1 60 0l125 125a42 42 0 1 1-60 60l-95-97-95 97a42 42 0 1 1-60-60z m125-45l-95-96-95 96a42 42 0 0 1-60-61l125-125a42 42 0 0 1 60 0l125 125a42 42 0 0 1-60 59z" horiz-adv-x="1000" />

<glyph glyph-name="chart-down" unicode="&#xeb39;" d="M875 392a42 42 0 0 1-42-42v-108l-262 263a42 42 0 0 1-59 0l-137-138-220 221a42 42 0 0 1-60-59l250-250a42 42 0 0 1 60 0l137 137 233-233h-108a42 42 0 0 1 0-83h208a42 42 0 0 1 16 3 42 42 0 0 1 22 23 42 42 0 0 1 4 16v208a42 42 0 0 1-42 42z" horiz-adv-x="1000" />

<glyph glyph-name="angle-down" unicode="&#xeb3a;" d="M708 468a42 42 0 0 1-58 0l-150-148-147 148a42 42 0 0 1-59 0 42 42 0 0 1 0-59l176-177a42 42 0 0 1 60 0l178 177a42 42 0 0 1 0 59z" horiz-adv-x="1000" />

<glyph glyph-name="expand-left" unicode="&#xeb3b;" d="M382 426a42 42 0 0 1 30 12 42 42 0 0 1 0 60l-187 185h67a42 42 0 0 1 0 84h-167a42 42 0 0 1-16-4 42 42 0 0 1-22-22 42 42 0 0 1-4-16v-167a42 42 0 0 1 84 0v67l186-187a42 42 0 0 1 29-12z m266 72a42 42 0 0 1-60 0l-235-236a42 42 0 0 1 0-59 42 42 0 0 1 29-13 42 42 0 0 1 30 13l236 235a42 42 0 0 1 0 60z m227-315a42 42 0 0 1-42-41v-67l-185 187a42 42 0 1 1-60-59l187-186h-67a42 42 0 0 1 0-84h167a42 42 0 0 1 16 4 42 42 0 0 1 22 22 42 42 0 0 1 4 16v167a42 42 0 0 1-42 41z" horiz-adv-x="1000" />

<glyph glyph-name="arrow-resize-diagonal" unicode="&#xeb3c;" d="M913 741a42 42 0 0 1-22 22 42 42 0 0 1-16 4h-250a42 42 0 0 1 0-84h150l-608-608v150a42 42 0 0 1-84 0v-250a42 42 0 0 1 4-16 42 42 0 0 1 22-22 42 42 0 0 1 16-4h250a42 42 0 0 1 0 84h-150l608 608v-150a42 42 0 0 1 84 0v250a42 42 0 0 1-4 16z" horiz-adv-x="1000" />

<glyph glyph-name="exchange-alt" unicode="&#xeb3d;" d="M905 463l-167 167a42 42 0 0 1-59-60l96-95h-483a42 42 0 0 1 0-83h583a42 42 0 0 1 38 26 42 42 0 0 1-8 45z m-197-155h-583a42 42 0 0 1-38-25 42 42 0 0 1 8-46l167-167a42 42 0 0 1 59 0 42 42 0 0 1 0 60l-96 95h483a42 42 0 0 1 0 83z" horiz-adv-x="1000" />

<glyph glyph-name="angle-double-left" unicode="&#xeb3e;" d="M478 505a42 42 0 0 1-60 0l-125-125a42 42 0 0 1 0-60l125-125a42 42 0 0 1 60 0 42 42 0 0 1 0 60l-96 95 95 95a42 42 0 0 1 0 60z m133-155l97 95a42 42 0 0 1-59 60l-125-125a42 42 0 0 1 0-60l125-125a42 42 0 0 1 59 0 42 42 0 0 1 0 60z" horiz-adv-x="1000" />

<glyph glyph-name="expand-alt" unicode="&#xeb3f;" d="M408 317l-241-242v67a42 42 0 0 1-84 0v-167a42 42 0 0 1 4-16 42 42 0 0 1 22-22 42 42 0 0 1 16-4h167a42 42 0 0 1 0 84h-67l242 241a42 42 0 0 1-59 59z m505 424a42 42 0 0 1-22 22 42 42 0 0 1-16 4h-167a42 42 0 0 1 0-84h67l-242-241a42 42 0 0 1 0-59 42 42 0 0 1 59 0l241 242v-67a42 42 0 0 1 84 0v167a42 42 0 0 1-4 16z" horiz-adv-x="1000" />

<glyph glyph-name="compress-arrows" unicode="&#xeb40;" d="M433 305a42 42 0 0 1-16 3h-167a42 42 0 0 1 0-83h66l-221-220a42 42 0 0 1 0-60 42 42 0 0 1 60 0l220 221v-66a42 42 0 0 1 83 0v167a42 42 0 0 1-3 16 42 42 0 0 1-22 22z m-16 337a42 42 0 0 1-42-42v-66l-220 221a42 42 0 0 1-60-60l221-220h-66a42 42 0 0 1 0-83h167a42 42 0 0 1 15 3 42 42 0 0 1 23 23 42 42 0 0 1 3 15v167a42 42 0 0 1-41 42z m151-247a42 42 0 0 1 15-3h167a42 42 0 0 1 0 83h-66l221 220a42 42 0 1 1-60 60l-220-221v66a42 42 0 0 1-83 0v-167a42 42 0 0 1 3-15 42 42 0 0 1 23-23z m116-170h66a42 42 0 0 1 0 83h-167a42 42 0 0 1-15-3 42 42 0 0 1-23-22 42 42 0 0 1-3-16v-167a42 42 0 0 1 83 0v66l220-221a42 42 0 0 1 60 0 42 42 0 0 1 0 60z" horiz-adv-x="1000" />

<glyph glyph-name="caret-right" unicode="&#xeb41;" d="M813 386l-584 337a42 42 0 0 1-41 0 42 42 0 0 1-21-36v-674a42 42 0 0 1 21-36 42 42 0 0 1 41 0l584 337a42 42 0 0 1 0 72z m-563-301v530l458-265z" horiz-adv-x="1000" />

<glyph glyph-name="scroll-h" unicode="&#xeb42;" d="M196 588a42 42 0 0 1-59-59l179-179-179-179a42 42 0 0 1 0-59 42 42 0 0 1 59 0l209 208a42 42 0 0 1 0 60z m488-238l179 179a42 42 0 1 1-59 59l-209-208a42 42 0 0 1 0-60l209-208a42 42 0 0 1 59 0 42 42 0 0 1 0 59z" horiz-adv-x="1000" />

<glyph glyph-name="angle-double-right" unicode="&#xeb43;" d="M353 505a42 42 0 1 1-61-60l97-95-97-95a42 42 0 0 1 0-60 42 42 0 0 1 59 0l125 125a42 42 0 0 1 0 60z m354-125l-125 125a42 42 0 0 1-59-60l95-95-95-95a42 42 0 0 1 0-60 42 42 0 0 1 59 0l125 125a42 42 0 0 1 1 60z" horiz-adv-x="1000" />

<glyph glyph-name="arrow-to-bottom" unicode="&#xeb44;" d="M792 17h-584a42 42 0 0 1 0-84h584a42 42 0 0 1 0 84z m-322 95a42 42 0 0 1 14-9 39 39 0 0 1 32 0 42 42 0 0 1 14 9l166 167a42 42 0 0 1-59 59l-95-96v483a42 42 0 0 1-84 0v-483l-95 96a42 42 0 1 1-59-59z" horiz-adv-x="1000" />

<glyph glyph-name="sort" unicode="&#xeb45;" d="M679 255l-179-180-179 180a42 42 0 0 1-59-60l208-208a42 42 0 0 1 60 0l208 208a42 42 0 0 1-59 60z m-358 190l179 180 179-180a42 42 0 0 1 59 0 42 42 0 0 1 0 60l-208 208a42 42 0 0 1-60 0l-208-208a42 42 0 0 1 59-60z" horiz-adv-x="1000" />

<glyph glyph-name="scaling-left" unicode="&#xeb46;" d="M875 183a42 42 0 0 1-42-41v-67l-274 275 89 88a42 42 0 0 1-60 60l-88-89-275 274h67a42 42 0 0 1 0 84h-167a42 42 0 0 1-16-4 42 42 0 0 1-22-22 42 42 0 0 1-4-16v-167a42 42 0 0 1 84 0v67l274-275-89-88a42 42 0 0 1 0-59 42 42 0 0 1 30-13 42 42 0 0 1 30 13l88 88 275-274h-67a42 42 0 0 1 0-84h167a42 42 0 0 1 16 4 42 42 0 0 1 22 22 42 42 0 0 1 4 16v167a42 42 0 0 1-42 41z" horiz-adv-x="1000" />

<glyph glyph-name="arrows-resize-h" unicode="&#xeb47;" d="M417 600a42 42 0 0 1-42-42v-166h-150l34 33a42 42 0 0 1-59 59l-105-104a42 42 0 0 1-8-14 42 42 0 0 1 0-32 42 42 0 0 1 8-14l105-104a42 42 0 0 1 59 0 42 42 0 0 1 0 59l-34 33h150v-166a42 42 0 0 1 83 0v416a42 42 0 0 1-41 42z m496-234a42 42 0 0 1-8 14l-105 104a42 42 0 0 1-59-59l34-33h-150v166a42 42 0 0 1-83 0v-416a42 42 0 0 1 83 0v166h150l-34-33a42 42 0 0 1 0-59 42 42 0 0 1 59 0l105 104a42 42 0 0 1 8 14 42 42 0 0 1 0 32z" horiz-adv-x="1000" />

<glyph glyph-name="arrow-from-top" unicode="&#xeb48;" d="M637 171l-95-96v483a42 42 0 0 1-84 0v-483l-95 96a42 42 0 1 1-59-59l166-167a42 42 0 0 1 14-8 39 39 0 0 1 32 0 42 42 0 0 1 14 8l166 167a42 42 0 0 1-59 59z m155 596h-584a42 42 0 0 1 0-84h584a42 42 0 0 1 0 84z" horiz-adv-x="1000" />

<glyph glyph-name="arrows-up-right" unicode="&#xeb49;" d="M872 158a42 42 0 0 1-9 13l-125 125a42 42 0 0 1-59-59l54-54h-358a42 42 0 0 0-42 42v358l54-54a42 42 0 0 1 59 0 42 42 0 0 1 0 59l-125 125a42 42 0 0 1-13 9 42 42 0 0 1-32 0 42 42 0 0 1-14-9l-125-125a42 42 0 0 1 59-59l54 54v-358a125 125 0 0 1 125-125h358l-54-54a42 42 0 0 1 0-59 42 42 0 0 1 59 0l125 125a42 42 0 0 1 9 14 42 42 0 0 1 0 32z" horiz-adv-x="1000" />

<glyph glyph-name="arrows-left-down" unicode="&#xeb4a;" d="M905 171a42 42 0 0 1-60 0l-95-96v400a125 125 0 0 1-125 125h-400l96 95a42 42 0 0 1-59 60l-167-167a42 42 0 0 1-8-14 42 42 0 0 1 0-31 42 42 0 0 1 8-14l167-167a42 42 0 0 1 59 0 42 42 0 0 1 0 59l-96 96h400a42 42 0 0 0 42-42v-400l-96 96a42 42 0 0 1-59-59l167-167a42 42 0 0 1 14-8 39 39 0 0 1 31 0 42 42 0 0 1 14 8l167 167a42 42 0 0 1 0 59z" horiz-adv-x="1000" />

<glyph glyph-name="arrows-right-down" unicode="&#xeb4b;" d="M872 574a42 42 0 0 1-9 14l-125 125a42 42 0 0 1-59-59l54-54h-358a125 125 0 0 1-125-125v-358l-54 54a42 42 0 0 1-59-59l125-125a42 42 0 0 1 14-9 39 39 0 0 1 32 0 42 42 0 0 1 13 9l125 125a42 42 0 0 1-59 59l-54-54v358a42 42 0 0 0 42 42h358l-54-54a42 42 0 0 1 0-59 42 42 0 0 1 59 0l125 125a42 42 0 0 1 9 14 42 42 0 0 1 0 31z" horiz-adv-x="1000" />

<glyph glyph-name="arrows-h-alt" unicode="&#xeb4c;" d="M913 366a42 42 0 0 1-8 14l-105 104a42 42 0 0 1-59-59l34-33h-192a42 42 0 0 1 0-84h192l-34-33a42 42 0 0 1 0-59 42 42 0 0 1 59 0l105 104a42 42 0 0 1 8 14 42 42 0 0 1 0 32z m-496 26h-192l34 33a42 42 0 0 1-59 59l-105-104a42 42 0 0 1-8-14 42 42 0 0 1 0-32 42 42 0 0 1 8-14l105-104a42 42 0 0 1 59 0 42 42 0 0 1 0 59l-34 33h192a42 42 0 0 1 0 84z" horiz-adv-x="1000" />

<glyph glyph-name="download-alt" unicode="&#xeb4d;" d="M345 296a42 42 0 0 1 0-59l125-125a42 42 0 0 1 60 0l125 125a42 42 0 0 1-60 59l-53-54v483a42 42 0 0 1-84 0v-483l-53 54a42 42 0 0 1-60 0z m405 179h-83a42 42 0 0 1 0-83h83a42 42 0 0 0 42-42v-292a42 42 0 0 0-42-41h-500a42 42 0 0 0-42 41v292a42 42 0 0 0 42 42h83a42 42 0 0 1 0 83h-83a125 125 0 0 1-125-125v-292a125 125 0 0 1 125-125h500a125 125 0 0 1 125 125v292a125 125 0 0 1-125 125z" horiz-adv-x="1000" />
</font>
</defs>
</svg>
