<?xml version="1.0" standalone="no"?>
<!DOCTYPE svg PUBLIC "-//W3C//DTD SVG 1.1//EN" "http://www.w3.org/Graphics/SVG/1.1/DTD/svg11.dtd">
<svg xmlns="http://www.w3.org/2000/svg">
<metadata>Iconscout</metadata>
<defs>
<font id="unicons-2" horiz-adv-x="1000" >
<font-face font-family="unicons-2" font-weight="400" font-stretch="normal" units-per-em="1000" ascent="850" descent="-150" />
<missing-glyph horiz-adv-x="1000" />
<glyph glyph-name="grin" unicode="&#xe878;" d="M375 392a42 42 0 1 1-42 41 42 42 0 0 1 42-41z m125 375a417 417 0 1 1 417-417 417 417 0 0 1-417 417z m0-750a333 333 0 1 0 333 333 333 333 0 0 0-333-333z m125 291h-250a42 42 0 0 1-42-41 167 167 0 0 1 334 0 42 42 0 0 1-42 41z m-125-125a83 83 0 0 0-72 42h144a83 83 0 0 0-72-42z m125 292a42 42 0 1 1 42-42 42 42 0 0 1-42 42z" horiz-adv-x="1000" />

<glyph glyph-name="sad-cry" unicode="&#xe879;" d="M500 767a417 417 0 0 1-142-808h2a409 409 0 0 1 280 0h2a417 417 0 0 1-142 808z m83-739a326 326 0 0 0-166 0v155h166z m84 34v330a42 42 0 0 1 0 83h-84a42 42 0 0 1 0-83v-125h-166v125a42 42 0 0 1 0 83h-84a42 42 0 0 1 0-83v-330a333 333 0 1 0 334 0z" horiz-adv-x="1000" />

<glyph glyph-name="sad-crying" unicode="&#xe87a;" d="M500 767a417 417 0 0 1-142-808h2a409 409 0 0 1 280 0h2a417 417 0 0 1-142 808z m83-739a326 326 0 0 0-166 0v130a158 158 0 0 0 166 0z m84 34v330a42 42 0 0 1 0 83h-84a42 42 0 0 1 0-83v-142a250 250 0 0 1-166 0v142a42 42 0 0 1 0 83h-84a42 42 0 0 1 0-83v-330a333 333 0 1 0 334 0z" horiz-adv-x="1000" />

<glyph glyph-name="surprise" unicode="&#xe87b;" d="M500 767a417 417 0 1 1 417-417 417 417 0 0 1-417 417z m0-750a333 333 0 1 0 333 333 333 333 0 0 0-333-333z m-83 458a42 42 0 1 1-42-42 42 42 0 0 1 42 42z m208 42a42 42 0 1 1 42-42 42 42 0 0 1-42 42z m-125-125a141 141 0 0 1-135-146 141 141 0 0 1 135-146 141 141 0 0 1 135 146 141 141 0 0 1-135 146z m0-209a58 58 0 0 0-52 63 58 58 0 0 0 52 62 58 58 0 0 0 52-62 58 58 0 0 0-52-63z" horiz-adv-x="1000" />

<glyph glyph-name="unamused" unicode="&#xe87c;" d="M611 285l-175-62a42 42 0 0 1 14-81 42 42 0 0 1 14 2l175 63a42 42 0 1 1-28 78z m-167 125a42 42 0 0 1 0 59 128 128 0 0 1-176 0 42 42 0 1 1 58-59 42 42 0 0 0 59 0 42 42 0 0 1 59 0z m292 59a128 128 0 0 1-177 0 42 42 0 0 1 59-59 42 42 0 0 0 59 0 42 42 0 0 1 59 0 42 42 0 0 1-2 60z m-236 298a417 417 0 1 1 417-417 417 417 0 0 1-417 417z m0-750a333 333 0 1 0 333 333 333 333 0 0 0-333-333z" horiz-adv-x="1000" />

<glyph glyph-name="confused" unicode="&#xe87d;" d="M375 475a42 42 0 1 1 42-42 42 42 0 0 1-42 42z m236-190l-175-62a42 42 0 0 1 14-81 42 42 0 0 1 14 2l175 63a42 42 0 1 1-28 78z m14 190a42 42 0 1 1 42-42 42 42 0 0 1-42 42z m-125 292a417 417 0 1 1 417-417 417 417 0 0 1-417 417z m0-750a333 333 0 1 0 333 333 333 333 0 0 0-333-333z" horiz-adv-x="1000" />

<glyph glyph-name="grin-tongue-wink" unicode="&#xe87e;" d="M500 767a417 417 0 1 1 417-417 417 417 0 0 1-417 417z m0-750a333 333 0 1 0 333 333 333 333 0 0 0-333-333z m234 453a128 128 0 0 1-176 0 42 42 0 0 1 58-59 42 42 0 0 0 59 0 42 42 0 0 1 59 0 42 42 0 0 1 0 59z m-359-78a42 42 0 1 1-42 41 42 42 0 0 1 42-41z m250-84h-250a42 42 0 0 1 0-83 125 125 0 0 1 250 0 42 42 0 0 1 0 83z m-125-125a42 42 0 0 0-42 42h84a42 42 0 0 0-42-42z" horiz-adv-x="1000" />

<glyph glyph-name="grin-tongue-wink-alt" unicode="&#xe87f;" d="M384 411a42 42 0 0 1 59 0 42 42 0 0 1 0 59 128 128 0 0 1-177 0 42 42 0 1 1 59-59 42 42 0 0 0 59 0z m116 356a417 417 0 1 1 417-417 417 417 0 0 1-417 417z m0-750a333 333 0 1 0 333 333 333 333 0 0 0-333-333z m125 458a42 42 0 1 1 42-42 42 42 0 0 1-42 42z m0-167h-250a42 42 0 0 1 0-83 125 125 0 0 1 250 0 42 42 0 0 1 0 83z m-125-125a42 42 0 0 0-42 42h84a42 42 0 0 0-42-42z" horiz-adv-x="1000" />

<glyph glyph-name="kid" unicode="&#xe880;" d="M417 433a42 42 0 1 1-42-41 42 42 0 0 1 42 41z m187-169a42 42 0 0 1-57-15 54 54 0 0 0-94 0 42 42 0 0 1-57 15 42 42 0 0 1-16-56 138 138 0 0 1 240 0 42 42 0 0 1-16 56z m21 211a42 42 0 1 1 42-42 42 42 0 0 1-42 42z m-125 292a417 417 0 1 1 417-417 417 417 0 0 1-417 417z m0-750a333 333 0 0 0-125 643 125 125 0 0 1 0-18 125 125 0 0 1 125-125 42 42 0 0 1 0 83 42 42 0 0 0 0 83 333 333 0 0 0 0-666z" horiz-adv-x="1000" />

<glyph glyph-name="smile-wink-alt" unicode="&#xe881;" d="M375 392a42 42 0 1 1-42 41 42 42 0 0 1 42-41z m223-135a157 157 0 0 0-196 0 42 42 0 0 1-54-64 237 237 0 0 1 304 0 42 42 0 1 1-54 64z m-98 510a417 417 0 1 1 417-417 417 417 0 0 1-417 417z m0-750a333 333 0 1 0 333 333 333 333 0 0 0-333-333z m234 453a128 128 0 0 1-176 0 42 42 0 0 1 58-59 42 42 0 0 0 59 0 42 42 0 0 1 59 0 42 42 0 0 1 0 59z" horiz-adv-x="1000" />

<glyph glyph-name="smile-squint-wink" unicode="&#xe882;" d="M351 341a42 42 0 0 1 29-12 42 42 0 0 1 30 12l62 63a42 42 0 0 1 0 59l-62 62a42 42 0 1 1-59-59l33-33-33-33a42 42 0 0 1 0-59z m247-83a157 157 0 0 0-196 0 42 42 0 0 1-54-64 237 237 0 0 1 304 0 42 42 0 1 1-54 64z m27 217a42 42 0 1 1 42-42 42 42 0 0 1-42 42z m-125 292a417 417 0 1 1 417-417 417 417 0 0 1-417 417z m0-750a333 333 0 1 0 333 333 333 333 0 0 0-333-333z" horiz-adv-x="1000" />

<glyph glyph-name="annoyed-alt" unicode="&#xe883;" d="M611 285l-175-62a42 42 0 0 1 14-81 42 42 0 0 1 14 2l175 63a42 42 0 1 1-28 78z m-167 208a42 42 0 0 1-59 0 42 42 0 0 0-59 0 42 42 0 0 1-58 0 42 42 0 0 1 0-59 125 125 0 0 1 176 0 42 42 0 0 1-2 60z m292 0a42 42 0 0 1-59 0 42 42 0 0 0-59 0 42 42 0 0 1-59 0 42 42 0 0 1 0-59 125 125 0 0 1 177 0 42 42 0 0 1-2 60z m-236 274a417 417 0 1 1 417-417 417 417 0 0 1-417 417z m0-750a333 333 0 1 0 333 333 333 333 0 0 0-333-333z" horiz-adv-x="1000" />

<glyph glyph-name="silent-squint" unicode="&#xe884;" d="M319 341a42 42 0 0 1 30-12 42 42 0 0 1 29 12l63 63a42 42 0 0 1 0 59l-63 62a42 42 0 0 1-59-59l33-33-33-33a42 42 0 0 1 0-59z m313 0a42 42 0 0 1 29-12 42 42 0 0 1 30 12 42 42 0 0 1 0 59l-33 33 33 33a42 42 0 1 1-59 59l-63-62a42 42 0 0 1 0-59z m4-83a42 42 0 0 1-50 0l-31-23-30 23a42 42 0 0 1-50 0l-30-23-31 23a42 42 0 0 1-50 0l-56-42a42 42 0 1 1 50-66l31 23 31-23a28 28 0 0 1 5-3 35 35 0 0 1 9-3h20a47 47 0 0 1 14 6l30 23 30-23a42 42 0 0 1 42-4l4 2a16 16 0 0 1 5 2l31 23 30-23a42 42 0 0 1 25-8 42 42 0 0 1 33 17 42 42 0 0 1-8 58z m-136 509a417 417 0 1 1 417-417 417 417 0 0 1-417 417z m0-750a333 333 0 1 0 333 333 333 333 0 0 0-333-333z" horiz-adv-x="1000" />

<glyph glyph-name="sick" unicode="&#xe885;" d="M375 392a42 42 0 1 1-42 41 42 42 0 0 1 42-41z m250 0a42 42 0 1 1-42 41 42 42 0 0 1 42-41z m11-134a42 42 0 0 1-50 0l-31-23-30 23a42 42 0 0 1-50 0l-30-23-31 23a42 42 0 0 1-50 0l-56-41a42 42 0 1 1 50-67l31 23 31-23 5-2a35 35 0 0 1 9-4h5a42 42 0 0 1 10 0h4a44 44 0 0 1 15 7l30 23 30-23a42 42 0 0 1 42-5l4 2a16 16 0 0 1 5 3l31 23 30-23a42 42 0 0 1 25-8 42 42 0 0 1 33 16 42 42 0 0 1-8 59z m-136 509a417 417 0 1 1 417-417 417 417 0 0 1-417 417z m0-750a333 333 0 1 0 333 333 333 333 0 0 0-333-333z" horiz-adv-x="1000" />

<glyph glyph-name="shopping-cart-alt" unicode="&#xe886;" d="M896 225a125 125 0 0 1-79 116l78 292a42 42 0 0 1-8 36 42 42 0 0 1-33 14h-571l-13 53a42 42 0 0 1-41 31h-83v-84h51l103-385a42 42 0 0 1 42-31h429a42 42 0 0 0 0-84h-542a42 42 0 0 1 0-83h49a125 125 0 1 1 235 0h99a125 125 0 1 1 242-42 122 122 0 0 1-16 62 125 125 0 0 1 58 105z m-163 125h-358l-69 250h494z m-337-333a42 42 0 1 0 42 41 42 42 0 0 0-42-41z m333 0a42 42 0 1 0 42 41 42 42 0 0 0-42-41z" horiz-adv-x="1000" />

<glyph glyph-name="shopping-bag" unicode="&#xe887;" d="M792 558h-125v42a167 167 0 0 1-334 0v-42h-125a42 42 0 0 1-41-41v-459a125 125 0 0 1 125-125h416a125 125 0 0 1 125 125v459a42 42 0 0 1-41 41z m-375 42a83 83 0 0 0 166 0v-42h-166z m333-542a42 42 0 0 0-42-41h-416a42 42 0 0 0-42 41v417h83v-42a42 42 0 0 1 84 0v42h166v-42a42 42 0 0 1 84 0v42h83z" horiz-adv-x="1000" />

<glyph glyph-name="pricetag-alt" unicode="&#xe888;" d="M292 600a42 42 0 1 1 41-42 42 42 0 0 1-41 42z m613-241l-395 394a42 42 0 0 1-31 14h-250a42 42 0 0 1-29-12l-105-104a42 42 0 0 1-12-30v-250a44 44 0 0 1 12-29l396-396a44 44 0 0 1 29-12 42 42 0 0 1 30 12l355 354a42 42 0 0 1 12 30 44 44 0 0 1-12 29z m-385-325l-353 354v216l79 79h216l354-353z" horiz-adv-x="1000" />

<glyph glyph-name="shopping-cart" unicode="&#xe889;" d="M354 58a63 63 0 1 1 63-62 63 63 0 0 1-63 62z m438 125h-500a42 42 0 0 0 0 84h353a126 126 0 0 1 121 90l66 232a42 42 0 0 1-40 53h-511a125 125 0 0 1-118 83h-38a42 42 0 0 1 0-83h38a42 42 0 0 0 40-31l7-22v0l68-240a125 125 0 0 1 14-249h500a42 42 0 0 1 0 83z m-56 375l-50-178a42 42 0 0 0-41-30h-280l-11 37-49 171z m-48-500a63 63 0 1 1 62-62 63 63 0 0 1-62 62z" horiz-adv-x="1000" />

<glyph glyph-name="smile-squint-wink-alt" unicode="&#xe88a;" d="M375 392a42 42 0 1 1-42 41 42 42 0 0 1 42-41z m215-51a42 42 0 0 1 30-12 42 42 0 0 1 29 12 42 42 0 0 1 0 59l-33 33 33 33a42 42 0 1 1-59 59l-62-62a42 42 0 0 1 0-59z m-90 426a417 417 0 1 1 417-417 417 417 0 0 1-417 417z m0-750a333 333 0 1 0 333 333 333 333 0 0 0-333-333z m98 240a157 157 0 0 0-196 0 42 42 0 0 1-54-64 237 237 0 0 1 304 0 42 42 0 1 1-54 64z" horiz-adv-x="1000" />

<glyph glyph-name="store-alt" unicode="&#xe88b;" d="M917 767h-834a42 42 0 0 1-41-42v-167a125 125 0 0 1 83-117v-466a42 42 0 0 1 42-42h666a42 42 0 0 1 42 42v466a125 125 0 0 1 83 117v167a42 42 0 0 1-41 42z m-292-84h83v-125a42 42 0 0 0-83 0z m-167 0h84v-125a42 42 0 0 0-84 0z m-166 0h83v-125a42 42 0 0 0-83 0z m-125-166a42 42 0 0 0-42 41v125h83v-125a42 42 0 0 0-41-41z m416-500h-166v166a83 83 0 0 0 166 0z m209 0h-125v166a167 167 0 0 1-334 0v-166h-125v424a132 132 0 0 1 42 25 125 125 0 0 1 167 0 125 125 0 0 1 166 0 125 125 0 0 1 167 0 132 132 0 0 1 42-25z m83 541a42 42 0 0 0-83 0v125h83z" horiz-adv-x="1000" />

<glyph glyph-name="emoji" unicode="&#xe88c;" d="M625 392a42 42 0 1 1-42 41 42 42 0 0 1 42-41z m-250 0a42 42 0 1 1-42 41 42 42 0 0 1 42-41z m125 375a417 417 0 1 1 417-417 417 417 0 0 1-417 417z m0-750a333 333 0 1 0 333 333 333 333 0 0 0-333-333z m178 296a42 42 0 0 1-58 7 116 116 0 0 1-37-53h-152a117 117 0 0 1-36 54 42 42 0 0 1-57-8 42 42 0 0 1 6-58 42 42 0 0 0 10-30 45 45 0 0 0-10-30 42 42 0 1 1 52-65 120 120 0 0 1 35 53h152a113 113 0 0 1 37-54 42 42 0 0 1 24-8 42 42 0 0 1 33 16 42 42 0 0 1-6 58 42 42 0 0 0-11 30 45 45 0 0 0 11 30 42 42 0 0 1 7 58z" horiz-adv-x="1000" />

<glyph glyph-name="trademark-circle" unicode="&#xe88d;" d="M417 475h-125a42 42 0 0 1 0-83h20v-125a42 42 0 0 1 84 0v125h21a42 42 0 0 1 0 83z m307-3a42 42 0 0 1-45-9l-54-54-54 54a42 42 0 0 1-45 9 42 42 0 0 1-26-39v-166a42 42 0 0 1 83 0v66l12-13a42 42 0 0 1 60 0l12 13v-66a42 42 0 0 1 83 0v166a42 42 0 0 1-26 39z m-224 295a417 417 0 1 1 417-417 417 417 0 0 1-417 417z m0-750a333 333 0 1 0 333 333 333 333 0 0 0-333-333z" horiz-adv-x="1000" />

<glyph glyph-name="basketball" unicode="&#xe88e;" d="M500 767a417 417 0 0 1-350-192 417 417 0 0 1 611-550 417 417 0 0 1-261 742z m83-94a333 333 0 0 0 239-240 407 407 0 0 1-197-57 654 654 0 0 1-100 92 419 419 0 0 1 58 205z m-83 10a329 329 0 0 0-47-169c-7 3-13 7-19 10a647 647 0 0 1-170 61 333 333 0 0 0 236 98z m-292-173a573 573 0 0 0 187-60l6-3a330 330 0 0 0-234-97 333 333 0 0 0 41 160z m209-482a333 333 0 0 0-240 239 413 413 0 0 1 296 133 583 583 0 0 0 83-75 417 417 0 0 1-139-297z m83-11a333 333 0 0 0 107 243c2-3 5-6 7-9a583 583 0 0 0 76-174 330 330 0 0 0-190-60z m259 125a667 667 0 0 1-75 156l-9 10a330 330 0 0 0 158 42 333 333 0 0 0-74-208z" horiz-adv-x="1000" />

<glyph glyph-name="square-shape" unicode="&#xe88f;" d="M708 767h-416a208 208 0 0 1-209-209v-416a208 208 0 0 1 209-209h416a208 208 0 0 1 209 209v416a208 208 0 0 1-209 209z m125-625a125 125 0 0 0-125-125h-416a125 125 0 0 0-125 125v416a125 125 0 0 0 125 125h416a125 125 0 0 0 125-125z" horiz-adv-x="1000" />

<glyph glyph-name="label" unicode="&#xe890;" d="M905 380l-209 208a42 42 0 0 1-29 12h-459a125 125 0 0 1-125-125v-250a125 125 0 0 1 125-125h459a42 42 0 0 1 29 12l209 208a42 42 0 0 1 0 60z m-255-197h-442a42 42 0 0 0-41 42v250a42 42 0 0 0 41 42h442l166-167z" horiz-adv-x="1000" />

<glyph glyph-name="shopping-basket" unicode="&#xe891;" d="M583 100a42 42 0 0 1 42 42v83a42 42 0 0 1-83 0v-83a42 42 0 0 1 41-42z m-166 0a42 42 0 0 1 41 42v83a42 42 0 0 1-83 0v-83a42 42 0 0 1 42-42z m375 500h-58l-72 144a42 42 0 1 1-74-38l53-106h-282l53 106a42 42 0 0 1-74 38l-72-144h-58a125 125 0 0 1-38-243l31-311a125 125 0 0 1 125-113h349a125 125 0 0 1 125 113l31 311a125 125 0 0 1-39 243z m-76-546a42 42 0 0 0-41-37h-350a42 42 0 0 0-41 37l-30 296h492z m76 379h-584a42 42 0 0 0 0 84h584a42 42 0 0 0 0-84z" horiz-adv-x="1000" />

<glyph glyph-name="smile-wink" unicode="&#xe892;" d="M598 257a157 157 0 0 0-196 0 42 42 0 0 1-54-64 237 237 0 0 1 304 0 42 42 0 1 1-54 64z m-160 176a63 63 0 1 1-63-62 63 63 0 0 1 63 62z m187 42h-42a42 42 0 0 1 0-83h42a42 42 0 0 1 0 83z m-125 292a417 417 0 1 1 417-417 417 417 0 0 1-417 417z m0-750a333 333 0 1 0 333 333 333 333 0 0 0-333-333z" horiz-adv-x="1000" />

<glyph glyph-name="tag" unicode="&#xe893;" d="M880 404l-350 351a42 42 0 0 1-30 12h-375a42 42 0 0 1-42-42v-375a42 42 0 0 1 12-30l351-350a125 125 0 0 1 177 0l257 255a125 125 0 0 1 0 177z m-59-118l-257-257a42 42 0 0 0-59 0l-338 338v316h316l338-338a42 42 0 0 0 12-30 42 42 0 0 0-12-29z" horiz-adv-x="1000" />

<glyph glyph-name="label-alt" unicode="&#xe894;" d="M625 350a42 42 0 1 1 42 42 42 42 0 0 1-42-42z m280 30l-209 208a42 42 0 0 1-29 12h-459a125 125 0 0 1-125-125v-250a125 125 0 0 1 125-125h459a42 42 0 0 1 29 12l209 208a42 42 0 0 1 0 60z m-255-197h-442a42 42 0 0 0-41 42v250a42 42 0 0 0 41 42h442l166-167z" horiz-adv-x="1000" />

<glyph glyph-name="tag-alt" unicode="&#xe895;" d="M313 600a63 63 0 1 1 62-62 63 63 0 0 1-62 62z m567-196l-350 351a42 42 0 0 1-30 12h-375a42 42 0 0 1-42-42v-375a42 42 0 0 1 12-30l351-350a125 125 0 0 1 177 0l257 255a125 125 0 0 1 0 177z m-59-118l-257-257a42 42 0 0 0-59 0l-338 338v316h316l338-338a42 42 0 0 0 12-30 42 42 0 0 0-12-29z" horiz-adv-x="1000" />

<glyph glyph-name="store" unicode="&#xe896;" d="M917 524a52 52 0 0 1 0 8l-84 208a42 42 0 0 1-41 27h-584a42 42 0 0 1-38-27l-84-208a52 52 0 0 1 0-8 24 24 0 0 1-3-7 167 167 0 0 1 84-142v-400a42 42 0 0 1 41-42h584a42 42 0 0 1 41 42v398a167 167 0 0 1 84 144 24 24 0 0 1 0 7z m-375-507h-84v166h84z m208 0h-125v208a42 42 0 0 1-42 42h-166a42 42 0 0 1-42-42v-208h-125v333a167 167 0 0 1 125 58 167 167 0 0 1 250 0 167 167 0 0 1 125-58z m0 416a83 83 0 0 0-83 84 42 42 0 0 1-84 0 83 83 0 0 0-166 0 42 42 0 0 1-84 0 83 83 0 0 0-166-7l70 173h526l70-173a83 83 0 0 0-83-77z" horiz-adv-x="1000" />

<glyph glyph-name="meh-closed-eye" unicode="&#xe897;" d="M384 411a42 42 0 0 1 59 0 42 42 0 0 1 0 59 128 128 0 0 1-177 0 42 42 0 1 1 59-59 42 42 0 0 0 59 0z m241-144h-250a42 42 0 0 1 0-84h250a42 42 0 0 1 0 84z m109 203a128 128 0 0 1-176 0 42 42 0 0 1 58-59 42 42 0 0 0 59 0 42 42 0 0 1 59 0 42 42 0 0 1 0 59z m-234 297a417 417 0 1 1 417-417 417 417 0 0 1-417 417z m0-750a333 333 0 1 0 333 333 333 333 0 0 0-333-333z" horiz-adv-x="1000" />

<glyph glyph-name="trophy" unicode="&#xe898;" d="M875 683h-125v42a42 42 0 0 1-42 42h-416a42 42 0 0 1-42-42v-42h-125a42 42 0 0 1-42-41v-125a167 167 0 0 1 167-167h64a250 250 0 0 1 144-80v-87h-41a125 125 0 0 1-125-125v-83a42 42 0 0 1 41-42h334a42 42 0 0 1 41 42v83a125 125 0 0 1-125 125h-41v87a250 250 0 0 1 144 80h64a167 167 0 0 1 167 167v125a42 42 0 0 1-42 41z m-625-250a83 83 0 0 0-83 84v83h83v-83a250 250 0 0 1 15-84z m333-333a42 42 0 0 0 42-42v-41h-250v41a42 42 0 0 0 42 42z m84 417a167 167 0 0 0-334 0v166h334z m166 0a83 83 0 0 0-83-84h-15a250 250 0 0 1 15 84v83h83z" horiz-adv-x="1000" />

<glyph glyph-name="dice-three" unicode="&#xe899;" d="M500 392a42 42 0 1 1 42-42 42 42 0 0 1-42 42z m-167 166a42 42 0 1 1 42-41 42 42 0 0 1-42 41z m375 209h-416a208 208 0 0 1-209-209v-416a208 208 0 0 1 209-209h416a208 208 0 0 1 209 209v416a208 208 0 0 1-209 209z m125-625a125 125 0 0 0-125-125h-416a125 125 0 0 0-125 125v416a125 125 0 0 0 125 125h416a125 125 0 0 0 125-125z m-166 83a42 42 0 1 1 41-42 42 42 0 0 1-41 42z" horiz-adv-x="1000" />

<glyph glyph-name="football-ball" unicode="&#xe89a;" d="M910 618a170 170 0 0 1-48 94 170 170 0 0 1-93 48 602 602 0 0 1-679-678 170 170 0 0 1 48-94 170 170 0 0 1 93-48 547 547 0 0 1 87-7 599 599 0 0 1 421 178 593 593 0 0 1 171 507z m-735-533a70 70 0 0 0-2 10 509 509 0 0 0 147 435 516 516 0 0 0 362 153 435 435 0 0 0 73-5 70 70 0 0 0 10-3l-205-206-30 30a42 42 0 0 1-60 0 42 42 0 0 1 0-59l31-30-61-60-30 30a42 42 0 0 1-59 0 42 42 0 0 1 0-59l30-30z m505 83a510 510 0 0 0-435-145 70 70 0 0 0-10 2l205 206 30-30a42 42 0 1 1 60 59l-30 30 60 60 30-30a42 42 0 0 1 30-12 42 42 0 0 1 29 71l-30 30 206 206a70 70 0 0 0 3-10 509 509 0 0 0-148-435z" horiz-adv-x="1000" />

<glyph glyph-name="basketball-hoop" unicode="&#xe89b;" d="M750 433h-500a42 42 0 0 1 0-83h42v-375a42 42 0 0 1 83 0v42h83v-42a42 42 0 0 1 84 0v42h83v-42a42 42 0 0 1 83 0v375h42a42 42 0 0 1 0 83z m-292-333h-83v83h83z m0 167h-83v83h83z m167-167h-83v83h83z m0 167h-83v83h83z m208 500h-666a125 125 0 0 1-125-125v-334a125 125 0 0 1 125-125 42 42 0 0 1 0 84 42 42 0 0 0-42 41v334a42 42 0 0 0 42 41h666a42 42 0 0 0 42-41v-334a42 42 0 0 0-42-41 42 42 0 0 1 0-84 125 125 0 0 1 125 125v334a125 125 0 0 1-125 125z m-250-250a42 42 0 0 1 0 83h-166a42 42 0 0 1 0-83z" horiz-adv-x="1000" />

<glyph glyph-name="club" unicode="&#xe89c;" d="M875 329a230 230 0 0 1-146 214 229 229 0 0 1-459 0 229 229 0 0 1 84-443h8a288 288 0 0 0-51-100 42 42 0 0 1 32-67h314a42 42 0 0 1 32 68 288 288 0 0 0-51 99h8a230 230 0 0 1 229 229z m-456-312a370 370 0 0 1 34 106 228 228 0 0 1 47 30 228 228 0 0 1 47-30 370 370 0 0 1 34-106z m114 221l-4 3-3 3h-3l-8 4-7 2h-16l-7-2a23 23 0 0 1-7-4h-4l-3-3-3-3a146 146 0 1 0-145 234 46 46 0 0 1 7 3 59 59 0 0 1 7 3 35 35 0 0 1 6 6 26 26 0 0 1 9 13 25 25 0 0 1 3 7 29 29 0 0 1 0 8 42 42 0 0 1 0 7 142 142 0 0 0 0 19 146 146 0 0 0 291 0 142 142 0 0 0 0-19 34 34 0 0 1 0-6 31 31 0 0 1 0-9 25 25 0 0 1 3-7 26 26 0 0 1 9-13 35 35 0 0 1 6-6 59 59 0 0 1 7-3 46 46 0 0 1 7-3 146 146 0 1 0-145-234z" horiz-adv-x="1000" />

<glyph glyph-name="tennis-ball" unicode="&#xe89d;" d="M500 767a417 417 0 0 1-306-699l4-4a417 417 0 0 1 605 0l3 4a417 417 0 0 1-306 699z m-266-617a330 330 0 0 0 0 400 250 250 0 0 0 0-400z m266-133a330 330 0 0 0-208 73 333 333 0 0 1 0 520 331 331 0 0 0 416 0 333 333 0 0 1 0-520 330 330 0 0 0-208-73z m266 133a250 250 0 0 0 0 400 330 330 0 0 0 0-400z" horiz-adv-x="1000" />

<glyph glyph-name="football" unicode="&#xe89e;" d="M836 595a410 410 0 0 1-179 140 417 417 0 0 1-574-385v-23a414 414 0 0 1 56-185 417 417 0 0 1 245-194 421 421 0 0 1 116-15 394 394 0 0 1 78 8 417 417 0 0 1 334 350 394 394 0 0 1 5 59 410 410 0 0 1-81 245z m-83-32l-45-119-67-18-99 70v77l103 76a325 325 0 0 0 110-86z m-170-199l-32-97h-102l-32 97 83 59z m-83 319a333 333 0 0 0 46-3l-46-34-46 34a333 333 0 0 0 46 3z m-297-182l17-55-47-33a328 328 0 0 0 30 88z m57-382l58-2 15-55a347 347 0 0 0-73 57z m73 81l-131 5a326 326 0 0 0-32 103l103 73 60-26 37-115z m36 230l-65 30-38 125a330 330 0 0 0 88 64l104-76v-77z m173-410a337 337 0 0 0-110 5l-34 121 34 37h128l28-41z m100 29l19 51 57-3a326 326 0 0 0-77-48z m144 130l-129 4-30 46 37 115 63 17 98-83a327 327 0 0 0-40-99z m2 243l20 53a308 308 0 0 0 22-89z" horiz-adv-x="1000" />

<glyph glyph-name="volleyball" unicode="&#xe89f;" d="M858 563a36 36 0 0 1-3 4 417 417 0 0 1-538 158h-3a417 417 0 0 1-42-716l14-9 4-3a414 414 0 0 1 210-64h9a417 417 0 0 1 349 630z m-66-49a318 318 0 0 0 27-61 417 417 0 0 1-125 21 34 34 0 0 1-13 0 407 407 0 0 1-149-31 327 327 0 0 0-77 67 340 340 0 0 0 337 4z m-292 169a328 328 0 0 0 167-44 324 324 0 0 1-42 3 417 417 0 0 1-217-62 333 333 0 0 0-26 81 330 330 0 0 0 118 22z m-250-113a344 344 0 0 0 55 50 413 413 0 0 1 195-254 329 329 0 0 0-32-120 333 333 0 0 0-218 312v12z m-83-220a337 337 0 0 0 15 99 417 417 0 0 1 237-274 327 327 0 0 0-122-89 333 333 0 0 0-130 264z m327-333a325 325 0 0 0-109 20 414 414 0 0 1 135 134 417 417 0 0 1 63 204 321 321 0 0 0 74 15 333 333 0 0 0-163-373z m176 46a414 414 0 0 1 80 245 445 445 0 0 1-7 79 348 348 0 0 0 90-29v-8a333 333 0 0 0-163-286z" horiz-adv-x="1000" />

<glyph glyph-name="heart-sign" unicode="&#xe8a0;" d="M840 642a262 262 0 0 1-340 24 261 261 0 0 1-340-395l250-252a125 125 0 0 1 177 0l250 252a261 261 0 0 1 3 371z m-59-311l-250-250a42 42 0 0 0-59 0l-250 250a179 179 0 0 0 0 250 178 178 0 0 0 250 0 42 42 0 0 1 59 0 178 178 0 0 0 250-250z" horiz-adv-x="1000" />

<glyph glyph-name="spade" unicode="&#xe8a1;" d="M877 338a237 237 0 0 1-69 167l-225 228a118 118 0 0 1-166 0l-225-226a237 237 0 0 1-69-167 238 238 0 0 1 238-240 287 287 0 0 0-51-99 42 42 0 0 1 33-68h314a42 42 0 0 1 32 68 285 285 0 0 0-51 99 237 237 0 0 1 240 238z m-127-109a157 157 0 0 0-152-40 42 42 0 0 1-8 0h-8a59 59 0 0 1-9-2h-6a29 29 0 0 1-6-5 31 31 0 0 1-7-6 25 25 0 0 0-2-4 105 105 0 0 1-5-10 46 46 0 0 1 0-7v-8a368 368 0 0 1 34-130h-162a359 359 0 0 1 37 125v8a46 46 0 0 1 0 7 47 47 0 0 1-6 10 22 22 0 0 1-2 4 23 23 0 0 1-7 6 53 53 0 0 1-5 5h-6a37 37 0 0 1-10 3h-7a46 46 0 0 1-8 0 159 159 0 0 0-155 44 156 156 0 0 0-45 109 154 154 0 0 0 45 110l225 226a34 34 0 0 0 47 0l228-226a154 154 0 0 0 45-110 157 157 0 0 0-45-109z" horiz-adv-x="1000" />

<glyph glyph-name="diamond" unicode="&#xe8a2;" d="M833 419l-241 309a128 128 0 0 1-186-3l-239-306a127 127 0 0 1-21-69 129 129 0 0 1 21-66l2-3 239-308a125 125 0 0 1 92-40 128 128 0 0 1 94 42l239 306a125 125 0 0 1-2 138z m-65-89l-236-301a46 46 0 0 0-59-3l-238 304a42 42 0 0 0-5 20 46 46 0 0 0 4 19l236 301a46 46 0 0 0 59 3l235-304a42 42 0 0 0 6-22 46 46 0 0 0-4-17z" horiz-adv-x="1000" />

<glyph glyph-name="money-stack" unicode="&#xe8a3;" d="M917 142h-834a42 42 0 0 1 0-84h834a42 42 0 0 1 0 84z m0-167h-834a42 42 0 0 1 0-83h834a42 42 0 0 1 0 83z m-667 583a42 42 0 1 1 42-41 42 42 0 0 1-42 41z m583 250h-666a125 125 0 0 1-125-125v-333a125 125 0 0 1 125-125h666a125 125 0 0 1 125 125v333a125 125 0 0 1-125 125z m42-458a42 42 0 0 0-42-42h-666a42 42 0 0 0-42 42v333a42 42 0 0 0 42 42h666a42 42 0 0 0 42-42z m-375 292a125 125 0 1 1 125-125 125 125 0 0 1-125 125z m0-167a42 42 0 1 0 42 42 42 42 0 0 0-42-42z m250 83a42 42 0 1 1 42-41 42 42 0 0 1-42 41z" horiz-adv-x="1000" />

<glyph glyph-name="money-withdrawal" unicode="&#xe8a4;" d="M917 767h-834a42 42 0 0 1-41-42v-333a42 42 0 0 1 41-42h125v-375a42 42 0 0 1 42-42h500a42 42 0 0 1 42 42v375h125a42 42 0 0 1 41 42v333a42 42 0 0 1-41 42z m-625-750v83a83 83 0 0 0 83-83z m416 0h-83a83 83 0 0 0 83 83z m0 166a167 167 0 0 1-166-166h-84a167 167 0 0 1-166 166v334h416z m167 250h-83v125a42 42 0 0 1-42 42h-500a42 42 0 0 1-42-42v-125h-83v250h750z m-375-208a125 125 0 1 1-125 125 125 125 0 0 1 125-125z m0 167a42 42 0 1 0-42-42 42 42 0 0 0 42 42z" horiz-adv-x="1000" />

<glyph glyph-name="presentation-line" unicode="&#xe8a5;" d="M875 267h-42v458a42 42 0 0 1-41 42h-584a42 42 0 0 1-41-42v-458h-42a42 42 0 0 1 0-84h333v-48l-189-125a42 42 0 0 1 23-77 39 39 0 0 1 23 7l143 95v-60a42 42 0 0 1 84 0v60l143-95a39 39 0 0 1 23-7 42 42 0 0 1 23 77l-189 125v48h333a42 42 0 0 1 0 84z m-125 0h-500v416h500z m-375 83a42 42 0 0 1 35 19l55 83 47-47a42 42 0 0 1 34-12 42 42 0 0 1 30 18l84 125a42 42 0 0 1-70 46l-55-83-47 47a42 42 0 0 1-34 12 42 42 0 0 1-30-18l-84-125a42 42 0 0 1 12-58 39 39 0 0 1 23-7z" horiz-adv-x="1000" />

<glyph glyph-name="kayak" unicode="&#xe8a6;" d="M880 147a125 125 0 0 1-142 24l-48 47a1000 1000 0 0 1 218 370 133 133 0 0 1-170 170 1000 1000 0 0 1-370-218l-47 48a125 125 0 1 1-201-35 125 125 0 0 1 88-36 125 125 0 0 1 54 12l48-47a1000 1000 0 0 1-218-369 135 135 0 0 1 33-138 132 132 0 0 1 93-42 156 156 0 0 1 45 7 1000 1000 0 0 1 369 218l47-48a125 125 0 1 1 201 35z m-642 466a42 42 0 0 0-59 58 42 42 0 0 0 59-58z m525 65a67 67 0 0 0 20 3 48 48 0 0 0 34-14 51 51 0 0 0 11-54 920 920 0 0 0-89-193l-169 169a920 920 0 0 0 193 89z m-526-656a50 50 0 0 0-65 65 920 920 0 0 0 89 193l169-169a920 920 0 0 0-193-89z m263 137l-191 191a887 887 0 0 0 59 73l205-205a887 887 0 0 0-73-59z m131 118l-204 205a887 887 0 0 0 73 59l192-191a887 887 0 0 0-60-73z m190-250a42 42 0 1 0-59 59 42 42 0 0 0 58 0 42 42 0 0 0 1-57z" horiz-adv-x="1000" />

<glyph glyph-name="chart-pie" unicode="&#xe8a7;" d="M500 767a417 417 0 1 1 205-779h5a417 417 0 0 1-210 779z m42-87a333 333 0 0 0 288-288h-288z m-42-663a333 333 0 0 0-42 663v-330a45 45 0 0 1 3-15v-6l167-286a325 325 0 0 0-128-26z m201 68l-129 223h258a333 333 0 0 0-129-223z" horiz-adv-x="1000" />

<glyph glyph-name="dumbbell" unicode="&#xe8a8;" d="M728 577l-118 118a42 42 0 0 1-59 0 42 42 0 0 1 0-58l88-89-337-337-89 88a42 42 0 0 1-58 0 42 42 0 0 1 0-59l117-117 117-117a42 42 0 0 1 29-13 42 42 0 0 1 30 72l-87 87 337 337 89-88a42 42 0 1 1 58 59z m-573-454a42 42 0 0 1-60-60l118-118a42 42 0 0 1 30-12 42 42 0 0 1 29 12 42 42 0 0 1 0 60z m750 514l-118 118a42 42 0 0 1-59-60l117-117a42 42 0 0 1 60 0 42 42 0 0 1 0 59z" horiz-adv-x="1000" />

<glyph glyph-name="suitcase-alt" unicode="&#xe8a9;" d="M792 600h-125v42a83 83 0 0 1-84 83h-166a83 83 0 0 1-84-83v-42h-125a125 125 0 0 1-125-125v-375a125 125 0 0 1 125-125h584a125 125 0 0 1 125 125v375a125 125 0 0 1-125 125z m-375 42h166v-42h-166z m416-542a42 42 0 0 0-41-42h-584a42 42 0 0 0-41 42v208h166v-41a42 42 0 0 1 84 0v41h166v-41a42 42 0 0 1 84 0v41h166z m0 292h-666v83a42 42 0 0 0 41 42h584a42 42 0 0 0 41-42z" horiz-adv-x="1000" />

<glyph glyph-name="yen" unicode="&#xe8aa;" d="M773 760a42 42 0 0 1-58-12l-215-323-215 323a42 42 0 0 1-70-46l209-310h-132a42 42 0 0 1 0-84h166v-83h-166a42 42 0 0 1 0-83h166v-167a42 42 0 0 1 84 0v167h166a42 42 0 0 1 0 83h-166v83h166a42 42 0 0 1 0 84h-130l208 310a42 42 0 0 1-13 58z" horiz-adv-x="1000" />

<glyph glyph-name="yen-circle" unicode="&#xe8ab;" d="M500 808a458 458 0 1 1 458-458 458 458 0 0 1-458 458z m0-833a375 375 0 1 0 375 375 375 375 0 0 0-375-375z m118 606l-118-177-118 177a42 42 0 0 1-58 12 42 42 0 0 1-12-58l88-132h-25a42 42 0 0 1 0-83h83l2-3v-39h-85a42 42 0 0 1 0-83h83v-95a42 42 0 0 1 84 0v95h83a42 42 0 0 1 0 83h-83v39l2 3h81a42 42 0 0 1 0 83h-25l88 132a42 42 0 0 1-12 58 42 42 0 0 1-58-12z" horiz-adv-x="1000" />

<glyph glyph-name="briefcase-alt" unicode="&#xe8ac;" d="M792 579h-125v42a125 125 0 0 1-125 125h-84a125 125 0 0 1-125-125v-42h-125a125 125 0 0 1-125-125v-375a125 125 0 0 1 125-125h584a125 125 0 0 1 125 125v375a125 125 0 0 1-125 125z m-375 42a42 42 0 0 0 41 42h84a42 42 0 0 0 41-42v-42h-166z m416-542a42 42 0 0 0-41-41h-584a42 42 0 0 0-41 41v229a886 886 0 0 1 125-39v-24a42 42 0 0 1 83 0v8a958 958 0 0 1 125-8 958 958 0 0 1 125 8v-8a42 42 0 0 1 83 0v24a886 886 0 0 1 125 39z m0 321a850 850 0 0 0-125-42v13a42 42 0 0 1-83 0v-31a838 838 0 0 0-250 0v31a42 42 0 0 1-83 0v-14a850 850 0 0 0-125 42v55a42 42 0 0 0 41 42h584a42 42 0 0 0 41-42z" horiz-adv-x="1000" />

<glyph glyph-name="receipt" unicode="&#xe8ad;" d="M375 350h-83a42 42 0 0 1 0-83h83a42 42 0 0 1 0 83z m-42 83h167a42 42 0 0 1 0 84h-167a42 42 0 0 1 0-84z m42-250h-83a42 42 0 0 1 0-83h83a42 42 0 0 1 0 83z m500 167h-125v375a42 42 0 0 1-21 36 42 42 0 0 1-41 0l-125-71-125 71a42 42 0 0 1-42 0l-125-71-125 71a42 42 0 0 1-42 0 42 42 0 0 1-21-36v-667a125 125 0 0 1 125-125h584a125 125 0 0 1 125 125v250a42 42 0 0 1-42 42z m-667-333a42 42 0 0 0-41 41v595l83-48a45 45 0 0 1 42 0l125 72 125-72a45 45 0 0 1 41 0l84 48v-595a125 125 0 0 1 7-41z m625 41a42 42 0 0 0-83 0v209h83z m-268 118a32 32 0 0 1-7 4 25 25 0 0 1-8 3 42 42 0 0 1-38-12 44 44 0 0 1-12-29 42 42 0 0 1 3-16 50 50 0 0 1 9-14 48 48 0 0 1 14-9 39 39 0 0 1 32 0 48 48 0 0 1 13 9 42 42 0 0 1 12 30 44 44 0 0 1-12 29 66 66 0 0 1-6 5z m6 162a42 42 0 0 1-68-14 42 42 0 0 1 39-57 42 42 0 0 1 41 41 42 42 0 0 1-3 16 38 38 0 0 1-9 14z" horiz-adv-x="1000" />

<glyph glyph-name="pound" unicode="&#xe8ae;" d="M833 17h-500a205 205 0 0 1 42 125v125h250a42 42 0 0 1 0 83h-250v130a204 204 0 0 0 380 101 42 42 0 0 1 58-15 42 42 0 0 1 15 57 288 288 0 0 1-536-143v-130h-125a42 42 0 0 1 0-83h125v-125a125 125 0 0 0-125-125 42 42 0 0 1 0-84h666a42 42 0 0 1 0 84z" horiz-adv-x="1000" />

<glyph glyph-name="invoice" unicode="&#xe8af;" d="M542 183h-250a42 42 0 0 1 0-83h250a42 42 0 0 1 0 83z m-167 250h83a42 42 0 0 1 0 84h-83a42 42 0 0 1 0-84z m500-83h-125v375a42 42 0 0 1-21 36 42 42 0 0 1-41 0l-125-71-125 71a42 42 0 0 1-42 0l-125-71-125 71a42 42 0 0 1-42 0 42 42 0 0 1-21-36v-667a125 125 0 0 1 125-125h584a125 125 0 0 1 125 125v250a42 42 0 0 1-42 42z m-667-333a42 42 0 0 0-41 41v595l83-48a45 45 0 0 1 42 0l125 72 125-72a45 45 0 0 1 41 0l84 48v-595a125 125 0 0 1 7-41z m625 41a42 42 0 0 0-83 0v209h83z m-291 292h-250a42 42 0 0 1 0-83h250a42 42 0 0 1 0 83z" horiz-adv-x="1000" />

<glyph glyph-name="pound-circle" unicode="&#xe8b0;" d="M667 225h-216a125 125 0 0 1 7 42v41h105a42 42 0 0 1 0 84h-105v41a81 81 0 0 0 152 42 42 42 0 0 1 72 42 167 167 0 0 1-307-84v-41h-42a42 42 0 0 1 0-84h42v-41a42 42 0 0 0-42-42 42 42 0 0 1 0-83h334a42 42 0 0 1 0 83z m-167 583a458 458 0 1 1 458-458 458 458 0 0 1-458 458z m0-833a375 375 0 1 0 375 375 375 375 0 0 0-375-375z" horiz-adv-x="1000" />

<glyph glyph-name="analysis" unicode="&#xe8b1;" d="M905 546a42 42 0 0 1-60 0l-262-262-178 179a42 42 0 0 1-60 0l-250-250a42 42 0 0 1 0-59 42 42 0 0 1 60 0l220 221 179-180a42 42 0 0 1 59 0l292 292a42 42 0 0 1 0 59z" horiz-adv-x="1000" />

<glyph glyph-name="suitcase" unicode="&#xe8b2;" d="M792 579h-125v42a125 125 0 0 1-125 125h-84a125 125 0 0 1-125-125v-42h-125a125 125 0 0 1-125-125v-375a125 125 0 0 1 125-125h584a125 125 0 0 1 125 125v375a125 125 0 0 1-125 125z m-375 42a42 42 0 0 0 41 42h84a42 42 0 0 0 41-42v-42h-166z m416-542a42 42 0 0 0-41-41h-584a42 42 0 0 0-41 41v211h125v-44a42 42 0 0 1 83 0v44h250v-44a42 42 0 0 1 83 0v44h125z m0 292h-666v83a42 42 0 0 0 41 42h584a42 42 0 0 0 41-42z" horiz-adv-x="1000" />

<glyph glyph-name="moneybag-alt" unicode="&#xe8b3;" d="M792 558h-125v42a125 125 0 0 1-125 125h-84a125 125 0 0 1-125-125v-42h-125a125 125 0 0 1-125-125v-333a125 125 0 0 1 125-125h584a125 125 0 0 1 125 125v333a125 125 0 0 1-125 125z m-375 42a42 42 0 0 0 41 42h84a42 42 0 0 0 41-42v-42h-166z m-250-167a42 42 0 0 0 41 42h42a83 83 0 0 0-83-83z m41-375a42 42 0 0 0-41 42v42a83 83 0 0 0 83-84z m625 42a42 42 0 0 0-41-42h-42a83 83 0 0 0 83 84z m0 125a167 167 0 0 1-166-167h-334a167 167 0 0 1-166 167v83a167 167 0 0 1 166 167h334a167 167 0 0 1 166-167z m0 167a83 83 0 0 0-83 83h42a42 42 0 0 0 41-42z m-333 0a125 125 0 1 1 125-125 125 125 0 0 1-125 125z m0-167a42 42 0 1 0 42 42 42 42 0 0 0-42-42z" horiz-adv-x="1000" />
</font>
</defs>
</svg>
