<?xml version="1.0" standalone="no"?>
<!DOCTYPE svg PUBLIC "-//W3C//DTD SVG 1.1//EN" "http://www.w3.org/Graphics/SVG/1.1/DTD/svg11.dtd">
<svg xmlns="http://www.w3.org/2000/svg">
<metadata>Iconscout</metadata>
<defs>
<font id="unicons-5" horiz-adv-x="1000" >
<font-face font-family="unicons-5" font-weight="400" font-stretch="normal" units-per-em="1000" ascent="850" descent="-150" />
<missing-glyph horiz-adv-x="1000" />
<glyph glyph-name="clock-eight" unicode="&#xe92c;" d="M500 600a42 42 0 0 1-42-42v-182l-101-51a42 42 0 1 1 38-75l124 63a42 42 0 0 1 23 37v208a42 42 0 0 1-42 42z m0 167a417 417 0 1 1 417-417 417 417 0 0 1-417 417z m0-750a333 333 0 1 0 333 333 334 334 0 0 0-333-333z" horiz-adv-x="1000" />

<glyph glyph-name="clipboard-alt" unicode="&#xe92d;" d="M625 267h-250a42 42 0 0 1 0-84h250a42 42 0 0 1 0 84z m0 166h-167a42 42 0 0 1 0-83h167a42 42 0 0 1 0 83z m83 250h-49a125 125 0 0 1-117 84h-84a125 125 0 0 1-117-84h-49a125 125 0 0 1-125-125v-500a125 125 0 0 1 125-125h416a125 125 0 0 1 125 125v500a125 125 0 0 1-125 125z m-291-41a42 42 0 0 0 41 41h84a42 42 0 0 0 41-41v-42h-166z m333-584a42 42 0 0 0-42-41h-416a42 42 0 0 0-42 41v500a42 42 0 0 0 42 42h41v-42a42 42 0 0 1 42-41h250a42 42 0 0 1 42 41v42h41a42 42 0 0 0 42-42z" horiz-adv-x="1000" />

<glyph glyph-name="books" unicode="&#xe92e;" d="M936 66l-41 161-132 483a42 42 0 0 1-51 29l-161-41a42 42 0 0 1-30 13h-417a42 42 0 0 1-42-41v-667a42 42 0 0 1 42-42h417a42 42 0 0 1 41 42v333l92-342a42 42 0 0 1 42-31 48 48 0 0 1 11 0l201 54a42 42 0 0 1 25 19 44 44 0 0 1 3 30z m-666-23h-125v83h125z m0 167h-125v250h125z m0 333h-125v83h125z m208-500h-125v83h125z m0 167h-125v250h125z m0 333h-125v83h125z m94 72l120 33 22-80-121-33z m108-402l-65 242 121 32 64-242z m41-161l-21 81 120 32 22-80z" horiz-adv-x="1000" />

<glyph glyph-name="file-search-alt" unicode="&#xe92f;" d="M500 17h-292a42 42 0 0 0-41 41v584a42 42 0 0 0 41 41h209v-125a125 125 0 0 1 125-125h125v-41a42 42 0 0 1 83 0v83 3a55 55 0 0 1-2 11v4a45 45 0 0 1-8 11l-250 250a45 45 0 0 1-12 8 13 13 0 0 1-4 0 37 37 0 0 1-14 5h-252a125 125 0 0 1-125-125v-584a125 125 0 0 1 125-125h292a42 42 0 0 1 0 84z m0 608l108-108h-66a42 42 0 0 0-42 41z m-208-108a42 42 0 0 1 0-84h41a42 42 0 0 1 0 84z m613-512l-49 48a143 143 0 0 1-23 172 145 145 0 0 1-250-104 144 144 0 0 1 214-127l48-49a42 42 0 0 1 60 0 42 42 0 0 1 0 60z m-132 73a64 64 0 0 0-88 0 63 63 0 0 0-18 43 61 61 0 0 0 18 44 62 62 0 0 0 42 18 61 61 0 0 0 65-62 63 63 0 0 0-19-43z m-231 272h-250a42 42 0 0 1 0-83h250a42 42 0 0 1 0 83z m-84-250a42 42 0 0 1 0 83h-166a42 42 0 0 1 0-83z" horiz-adv-x="1000" />

<glyph glyph-name="file-upload" unicode="&#xe930;" d="M530 380a42 42 0 0 1-14 8 42 42 0 0 1-32 0 42 42 0 0 1-14-8l-83-84a42 42 0 0 1 59-59l12 13v-108a42 42 0 0 1 84 0v108l12-13a42 42 0 0 1 59 0 42 42 0 0 1 0 59z m303 98a55 55 0 0 1-2 11v4a45 45 0 0 1-8 11l-250 250a45 45 0 0 1-12 8h-4a46 46 0 0 1-13 5h-252a125 125 0 0 1-125-125v-584a125 125 0 0 1 125-125h416a125 125 0 0 1 125 125v417 3z m-250 147l108-108h-66a42 42 0 0 0-42 41z m167-567a42 42 0 0 0-42-41h-416a42 42 0 0 0-42 41v584a42 42 0 0 0 42 41h208v-125a125 125 0 0 1 125-125h125z" horiz-adv-x="1000" />

<glyph glyph-name="file-share-alt" unicode="&#xe931;" d="M563 329a42 42 0 0 1-42 42h-208a42 42 0 0 1 0-83h208a42 42 0 0 1 42 41z m208-208a83 83 0 0 1-49-16l-73 33 79 37a83 83 0 0 1 42-12 83 83 0 1 1-83 83l-79-36a83 83 0 1 1-45-152 78 78 0 0 1 38 10l87-41a83 83 0 1 1 84 93z m-334-83h-208a42 42 0 0 0-42 41v584a42 42 0 0 0 42 41h208v-125a125 125 0 0 1 126-125h125a42 42 0 0 1 83 0v42 2a55 55 0 0 1-3 12v3a45 45 0 0 1-8 12l-250 250a45 45 0 0 1-11 8 12 12 0 0 1-4 0 46 46 0 0 1-11 2h-255a125 125 0 0 1-125-125v-583a125 125 0 0 1 125-125h209a42 42 0 0 1 0 83z m84 607l108-107h-66a42 42 0 0 0-42 41z m-209-441a42 42 0 0 1 0-83h42a42 42 0 0 1 0 83z m0 250h42a42 42 0 0 1 0 84h-42a42 42 0 0 1 0-84z" horiz-adv-x="1000" />

<glyph glyph-name="file-minus-alt" unicode="&#xe932;" d="M333 517a42 42 0 0 1 0-84h42a42 42 0 0 1 0 84z m209-500h-292a42 42 0 0 0-42 41v584a42 42 0 0 0 42 41h208v-125a125 125 0 0 1 125-125h125v-208a42 42 0 0 1 84 0v250 3a55 55 0 0 1-3 11v4a45 45 0 0 1-8 11l-250 250a45 45 0 0 1-11 8 12 12 0 0 1-5 0 46 46 0 0 1-12 5h-253a125 125 0 0 1-125-125v-584a125 125 0 0 1 125-125h292a42 42 0 0 1 0 84z m0 608l108-108h-67a42 42 0 0 0-41 41z m291-525h-166a42 42 0 0 1 0-83h166a42 42 0 0 1 0 83z m-291 83h-209a42 42 0 0 1 0-83h209a42 42 0 0 1 0 83z m41 167h-250a42 42 0 0 1 0-83h250a42 42 0 0 1 0 83z" horiz-adv-x="1000" />

<glyph glyph-name="folder-minus" unicode="&#xe933;" d="M583 329h-166a42 42 0 0 1 0-83h166a42 42 0 0 1 0 83z m209 292h-262l-13 42a125 125 0 0 1-119 83h-190a125 125 0 0 1-125-125v-542a125 125 0 0 1 125-125h584a125 125 0 0 1 125 125v417a125 125 0 0 1-125 125z m41-542a42 42 0 0 0-41-41h-584a42 42 0 0 0-41 41v542a42 42 0 0 0 41 42h190a42 42 0 0 0 40-29l22-68a42 42 0 0 1 40-28h292a42 42 0 0 0 41-42z" horiz-adv-x="1000" />

<glyph glyph-name="file-shield-alt" unicode="&#xe934;" d="M438 17h-209a42 42 0 0 0-41 41v584a42 42 0 0 0 41 41h209v-125a125 125 0 0 1 125-125h125a42 42 0 0 1 83 0v42 3a55 55 0 0 1-3 11v4a45 45 0 0 1-8 11l-250 250a45 45 0 0 1-11 8 13 13 0 0 1-4 0l-13 5h-253a125 125 0 0 1-125-125v-584a125 125 0 0 1 125-125h209a42 42 0 0 1 0 84z m83 608l108-108h-66a42 42 0 0 0-42 41z m-208-108a42 42 0 0 1 0-84h41a42 42 0 0 1 0 84z m567-244a42 42 0 0 1-35 8 115 115 0 0 0-91 19 42 42 0 0 1-49 0 116 116 0 0 0-92-19 42 42 0 0 1-50-42v-97a192 192 0 0 1 76-154l65-46a42 42 0 0 1 50 0l65 48a192 192 0 0 1 77 152v98a42 42 0 0 1-16 33z m-67-131a109 109 0 0 0-42-87l-42-30-41 30a109 109 0 0 0-42 87v53a195 195 0 0 1 83 23 195 195 0 0 1 84-23z m-375 39h-125a42 42 0 0 1 0-83h125a42 42 0 0 1 0 83z m41 167h-166a42 42 0 0 1 0-83h166a42 42 0 0 1 0 83z" horiz-adv-x="1000" />

<glyph glyph-name="file-minus" unicode="&#xe935;" d="M583 267h-166a42 42 0 0 1 0-84h166a42 42 0 0 1 0 84z m250 211a55 55 0 0 1-2 11v4a45 45 0 0 1-8 11l-250 250a45 45 0 0 1-12 8h-3a37 37 0 0 1-14 5h-252a125 125 0 0 1-125-125v-584a125 125 0 0 1 125-125h416a125 125 0 0 1 125 125v417 3z m-250 147l108-108h-66a42 42 0 0 0-42 41z m167-567a42 42 0 0 0-42-41h-416a42 42 0 0 0-42 41v584a42 42 0 0 0 42 41h208v-125a125 125 0 0 1 125-125h125z" horiz-adv-x="1000" />

<glyph glyph-name="folder-medical" unicode="&#xe936;" d="M583 329h-41v42a42 42 0 0 1-84 0v-42h-41a42 42 0 0 1 0-83h41v-42a42 42 0 0 1 84 0v42h41a42 42 0 0 1 0 83z m209 292h-262l-13 42a125 125 0 0 1-119 83h-190a125 125 0 0 1-125-125v-542a125 125 0 0 1 125-125h584a125 125 0 0 1 125 125v417a125 125 0 0 1-125 125z m41-542a42 42 0 0 0-41-41h-584a42 42 0 0 0-41 41v542a42 42 0 0 0 41 42h190a42 42 0 0 0 40-29l22-68a42 42 0 0 1 40-28h292a42 42 0 0 0 41-42z" horiz-adv-x="1000" />

<glyph glyph-name="file-redo-alt" unicode="&#xe937;" d="M583 308a42 42 0 0 1-41 42h-209a42 42 0 0 1 0-83h209a42 42 0 0 1 41 41z m-125-291h-208a42 42 0 0 0-42 41v584a42 42 0 0 0 42 41h208v-125a125 125 0 0 1 125-125h125v-41a42 42 0 0 1 84 0v83 3a49 49 0 0 1-3 11v4a38 38 0 0 1-8 11l-250 250a45 45 0 0 1-11 8h-4a36 36 0 0 1-13 5h-253a125 125 0 0 1-125-125v-584a125 125 0 0 1 125-125h208a42 42 0 0 1 0 84z m84 608l108-108h-67a42 42 0 0 0-41 41z m291-358a42 42 0 0 1-38-25 170 170 0 0 1-87 25 167 167 0 1 1 110-292 42 42 0 0 1-55 63 83 83 0 0 0-55-21 83 83 0 1 0 42 156h-9a42 42 0 0 1 0-83h92a42 42 0 0 1 42 41v94a42 42 0 0 1-42 42z m-500 166h42a42 42 0 0 1 0 84h-42a42 42 0 0 1 0-84z m0-250a42 42 0 0 1 0-83h84a42 42 0 0 1 0 83z" horiz-adv-x="1000" />

<glyph glyph-name="file-lock-alt" unicode="&#xe938;" d="M417 17h-209a42 42 0 0 0-41 41v584a42 42 0 0 0 41 41h209v-125a125 125 0 0 1 125-125h166a42 42 0 0 1 39 26 42 42 0 0 1-9 46l-250 250a45 45 0 0 1-12 8 13 13 0 0 1-4 0l-11 4h-253a125 125 0 0 1-125-125v-584a125 125 0 0 1 125-125h209a42 42 0 0 1 0 84z m83 608l108-108h-66a42 42 0 0 0-42 41z m42-317a42 42 0 0 1-42 42h-208a42 42 0 0 1 0-83h208a42 42 0 0 1 42 41z m-250 125h41a42 42 0 0 1 0 84h-41a42 42 0 0 1 0-84z m0-250a42 42 0 0 1 0-83h83a42 42 0 0 1 0 83z m541 35v7a125 125 0 0 1-250 0v-7a125 125 0 0 1-83-118v-42a125 125 0 0 1 125-125h167a125 125 0 0 1 125 125v42a125 125 0 0 1-84 118z m-125 49a42 42 0 0 0 42-42h-83a42 42 0 0 0 41 42z m125-209a42 42 0 0 0-41-41h-167a42 42 0 0 0-42 41v42a42 42 0 0 0 42 42h167a42 42 0 0 0 41-42z" horiz-adv-x="1000" />

<glyph glyph-name="folder-lock" unicode="&#xe939;" d="M167 683h190a42 42 0 0 0 39-28l23-68a42 42 0 0 1 39-29h292a42 42 0 0 0 42-41 42 42 0 0 1 83 0 125 125 0 0 1-125 125h-262l-13 41a125 125 0 0 1-118 84h-190a125 125 0 0 1-125-125v-542a125 125 0 0 1 125-125h250a42 42 0 0 1 0 83h-250a42 42 0 0 0-42 42v542a42 42 0 0 0 42 41z m708-465v49a125 125 0 0 1-250 0v-49a125 125 0 0 1-83-118v-83a125 125 0 0 1 125-125h166a125 125 0 0 1 125 125v83a125 125 0 0 1-83 118z m-167 49a42 42 0 0 0 84 0v-42h-84z m167-250a42 42 0 0 0-42-42h-166a42 42 0 0 0-42 42v83a42 42 0 0 0 42 42h166a42 42 0 0 0 42-42z" horiz-adv-x="1000" />

<glyph glyph-name="heart-medical" unicode="&#xe93a;" d="M583 392h-41v41a42 42 0 0 1-84 0v-41h-41a42 42 0 0 1 0-84h41v-41a42 42 0 0 1 84 0v41h41a42 42 0 0 1 0 84z m257 250a262 262 0 0 1-340 24 261 261 0 0 1-340-395l250-252a125 125 0 0 1 177 0l250 252a261 261 0 0 1 3 371z m-59-311l-250-250a42 42 0 0 0-59 0l-250 250a179 179 0 0 0 0 250 178 178 0 0 0 250 0 42 42 0 0 1 59 0 178 178 0 0 0 250 0 179 179 0 0 0 0-251z" horiz-adv-x="1000" />

<glyph glyph-name="file-question-alt" unicode="&#xe93b;" d="M545 350h-209a42 42 0 0 1 0-83h209a42 42 0 0 1 0 83z m41-333h-333a42 42 0 0 0-42 41v584a42 42 0 0 0 42 41h208v-125a125 125 0 0 1 125-125h125v-41a42 42 0 0 1 84 0v83a6 6 0 0 1 0 3 36 36 0 0 1-3 11v4a45 45 0 0 1-8 11l-250 250a42 42 0 0 1-12 8h-4a37 37 0 0 1-13 5h-250a125 125 0 0 1-125-125v-584a125 125 0 0 1 125-125h333a42 42 0 0 1 0 84z m-41 608l107-108h-66a42 42 0 0 0-41 41z m232-620a66 66 0 0 1-7 5 45 45 0 0 1-15 6 42 42 0 0 1-37-11 42 42 0 0 1 0-60 42 42 0 0 1 29-12 42 42 0 0 1 39 58 50 50 0 0 1-9 14z m-232 178h-209a42 42 0 0 1 0-83h209a42 42 0 0 1 0 83z m202 125a125 125 0 0 1-108-62 42 42 0 1 1 72-42 42 42 0 1 0 36-62 42 42 0 0 1 0-84 125 125 0 0 1 0 250z m-411 125h42a42 42 0 0 1 0 84h-42a42 42 0 0 1 0-84z" horiz-adv-x="1000" />

<glyph glyph-name="files-landscapes-alt" unicode="&#xe93c;" d="M750 58h-500a125 125 0 0 0-125 125v334a42 42 0 0 1-83 0v-334a208 208 0 0 1 208-208h500a42 42 0 0 1 0 83z m-167 334h-166a42 42 0 0 1 0-84h166a42 42 0 0 1 0 84z m375 44a55 55 0 0 1-2 11v4a45 45 0 0 1-8 12l-250 250a45 45 0 0 1-12 7h-3a37 37 0 0 1-14 5h-336a125 125 0 0 1-125-125v-333a125 125 0 0 1 125-125h500a125 125 0 0 1 125 125v166 3z m-250 147l108-108h-66a42 42 0 0 0-42 42z m167-316a42 42 0 0 0-42-42h-500a42 42 0 0 0-41 42v333a42 42 0 0 0 41 42h292v-125a125 125 0 0 1 125-125h125z m-458 208h83a42 42 0 0 1 0 83h-83a42 42 0 0 1 0-83z" horiz-adv-x="1000" />

<glyph glyph-name="file-medical" unicode="&#xe93d;" d="M583 267h-41v41a42 42 0 0 1-84 0v-41h-41a42 42 0 0 1 0-84h41v-41a42 42 0 0 1 84 0v41h41a42 42 0 0 1 0 84z m250 211a55 55 0 0 1-2 11v4a45 45 0 0 1-8 11l-250 250a45 45 0 0 1-12 8h-3a37 37 0 0 1-14 5h-252a125 125 0 0 1-125-125v-584a125 125 0 0 1 125-125h416a125 125 0 0 1 125 125v417 3z m-250 147l108-108h-66a42 42 0 0 0-42 41z m167-567a42 42 0 0 0-42-41h-416a42 42 0 0 0-42 41v584a42 42 0 0 0 42 41h208v-125a125 125 0 0 1 125-125h125z" horiz-adv-x="1000" />

<glyph glyph-name="file-landscape" unicode="&#xe93e;" d="M917 394a55 55 0 0 1-3 11v4a45 45 0 0 1-8 12l-250 250a45 45 0 0 1-11 8h-5a46 46 0 0 1-12 4h-420a125 125 0 0 1-125-125v-416a125 125 0 0 1 125-125h584a125 125 0 0 1 125 125v250 2z m-250 147l108-108h-67a42 42 0 0 0-41 42z m166-399a42 42 0 0 0-41-42h-584a42 42 0 0 0-41 42v416a42 42 0 0 0 41 42h375v-125a125 125 0 0 1 125-125h125z" horiz-adv-x="1000" />

<glyph glyph-name="file-question" unicode="&#xe93f;" d="M524 130a42 42 0 0 1-59 0 44 44 0 0 1-9-14 45 45 0 0 1 0-32 50 50 0 0 1 9-14 42 42 0 0 1 13-8 42 42 0 0 1 17-4 42 42 0 0 1 38 58 38 38 0 0 1-9 14z m309 348a55 55 0 0 1-2 11v4a45 45 0 0 1-8 11l-250 250a45 45 0 0 1-12 8h-3a37 37 0 0 1-14 5h-252a125 125 0 0 1-125-125v-584a125 125 0 0 1 125-125h416a125 125 0 0 1 125 125v417 3z m-250 147l108-108h-66a42 42 0 0 0-42 41z m167-567a42 42 0 0 0-42-41h-416a42 42 0 0 0-42 41v584a42 42 0 0 0 42 41h208v-125a125 125 0 0 1 125-125h125z m-255 375a125 125 0 0 1-109-62 42 42 0 1 1 72-42 42 42 0 0 0 37 21 42 42 0 0 0 0-83 42 42 0 1 1 0-84 125 125 0 0 1 0 250z" horiz-adv-x="1000" />

<glyph glyph-name="folder-question" unicode="&#xe940;" d="M524 171a27 27 0 0 1-6 5l-8 4-7 3a42 42 0 0 1-38-11 42 42 0 0 1-9-14 42 42 0 0 1-3-16 42 42 0 0 1 12-29 42 42 0 0 1 13-9 42 42 0 0 1 17-3 42 42 0 0 1 15 3 42 42 0 0 1 14 9 42 42 0 0 1 12 29 42 42 0 0 1-3 16 36 36 0 0 1-9 13z m-29 304a125 125 0 0 1-109-62 42 42 0 1 1 72-42 42 42 0 0 0 78-21 42 42 0 0 0-41-42 42 42 0 1 1 0-83 125 125 0 0 1 0 250z m297 146h-262l-13 42a125 125 0 0 1-119 83h-190a125 125 0 0 1-125-125v-542a125 125 0 0 1 125-125h584a125 125 0 0 1 125 125v417a125 125 0 0 1-125 125z m41-542a42 42 0 0 0-41-41h-584a42 42 0 0 0-41 41v542a42 42 0 0 0 41 42h190a42 42 0 0 0 40-29l22-68a42 42 0 0 1 40-28h292a42 42 0 0 0 41-42z" horiz-adv-x="1000" />

<glyph glyph-name="file-landscape-alt" unicode="&#xe941;" d="M917 394a55 55 0 0 1-3 11v4a45 45 0 0 1-8 12l-250 250a45 45 0 0 1-11 8h-5a46 46 0 0 1-12 4h-420a125 125 0 0 1-125-125v-416a125 125 0 0 1 125-125h584a125 125 0 0 1 125 125v250 2z m-250 147l108-108h-67a42 42 0 0 0-41 42z m166-399a42 42 0 0 0-41-42h-584a42 42 0 0 0-41 42v416a42 42 0 0 0 41 42h375v-125a125 125 0 0 1 125-125h125z m-541 208h166a42 42 0 0 1 0 83h-166a42 42 0 0 1 0-83z m0-83a42 42 0 0 1 0-84h416a42 42 0 0 1 0 84z" horiz-adv-x="1000" />

<glyph glyph-name="folder" unicode="&#xe942;" d="M792 621h-262l-13 42a125 125 0 0 1-119 83h-190a125 125 0 0 1-125-125v-542a125 125 0 0 1 125-125h584a125 125 0 0 1 125 125v417a125 125 0 0 1-125 125z m41-542a42 42 0 0 0-41-41h-584a42 42 0 0 0-41 41v542a42 42 0 0 0 41 42h190a42 42 0 0 0 40-29l22-68a42 42 0 0 1 40-28h292a42 42 0 0 0 41-42z" horiz-adv-x="1000" />

<glyph glyph-name="file-edit-alt" unicode="&#xe943;" d="M863 154l-101 101a42 42 0 0 1-59 0l-149-150a42 42 0 0 1-12-29v-101a42 42 0 0 1 41-42h101a42 42 0 0 1 30 12l149 150a42 42 0 0 1 0 59z m-196-137h-42v41l108 108 41-42z m-250 0h-167a42 42 0 0 0-42 41v584a42 42 0 0 0 42 41h208v-125a125 125 0 0 1 125-125h125v-41a42 42 0 0 1 84 0v83 3a55 55 0 0 1-3 11v4a45 45 0 0 1-8 11l-250 250a45 45 0 0 1-11 8 13 13 0 0 1-4 0l-13 5h-253a125 125 0 0 1-125-125v-584a125 125 0 0 1 125-125h167a42 42 0 0 1 0 84z m125 608l108-108h-67a42 42 0 0 0-41 41z m-209-358h250a42 42 0 0 1 0 83h-250a42 42 0 0 1 0-83z m0 166h42a42 42 0 0 1 0 84h-42a42 42 0 0 1 0-84z m84-250h-84a42 42 0 0 1 0-83h84a42 42 0 0 1 0 83z" horiz-adv-x="1000" />

<glyph glyph-name="folder-heart" unicode="&#xe944;" d="M500 440a122 122 0 0 1-143-194l113-113a42 42 0 0 1 60 0l113 113a122 122 0 0 1-143 194z m83-135l-83-83-83 83a38 38 0 0 0 0 55 38 38 0 0 0 54 0 42 42 0 0 1 59 0 38 38 0 0 0 54-55z m209 316h-262l-13 42a125 125 0 0 1-119 83h-190a125 125 0 0 1-125-125v-542a125 125 0 0 1 125-125h584a125 125 0 0 1 125 125v417a125 125 0 0 1-125 125z m41-542a42 42 0 0 0-41-41h-584a42 42 0 0 0-41 41v542a42 42 0 0 0 41 42h190a42 42 0 0 0 40-29l22-68a42 42 0 0 1 40-28h292a42 42 0 0 0 41-42z" horiz-adv-x="1000" />

<glyph glyph-name="folder-exclamation" unicode="&#xe945;" d="M538 178a32 32 0 0 1-3 8 66 66 0 0 1-5 6l-7 5-7 4a25 25 0 0 1-8 2 42 42 0 0 1-38-11l-5-6a32 32 0 0 1-3-8 27 27 0 0 1-3-7 57 57 0 0 1 0-8 42 42 0 0 1 3-16 48 48 0 0 1 9-14 42 42 0 0 1 46-9 61 61 0 0 1 13 9 61 61 0 0 1 10 14 42 42 0 0 1 2 16 57 57 0 0 1 0 8 27 27 0 0 1-4 7z m-38 235a42 42 0 0 1-42-42v-83a42 42 0 0 1 84 0v83a42 42 0 0 1-42 42z m292 208h-262l-13 42a125 125 0 0 1-119 83h-190a125 125 0 0 1-125-125v-542a125 125 0 0 1 125-125h584a125 125 0 0 1 125 125v417a125 125 0 0 1-125 125z m41-542a42 42 0 0 0-41-41h-584a42 42 0 0 0-41 41v542a42 42 0 0 0 41 42h190a42 42 0 0 0 40-29l22-68a42 42 0 0 1 40-28h292a42 42 0 0 0 41-42z" horiz-adv-x="1000" />

<glyph glyph-name="folder-info" unicode="&#xe946;" d="M500 288a42 42 0 0 1-42-42v-83a42 42 0 0 1 84 0v83a42 42 0 0 1-42 42z m292 333h-262l-13 42a125 125 0 0 1-119 83h-190a125 125 0 0 1-125-125v-542a125 125 0 0 1 125-125h584a125 125 0 0 1 125 125v417a125 125 0 0 1-125 125z m41-542a42 42 0 0 0-41-41h-584a42 42 0 0 0-41 41v542a42 42 0 0 0 41 42h190a42 42 0 0 0 40-29l22-68a42 42 0 0 1 40-28h292a42 42 0 0 0 41-42z m-303 321a42 42 0 0 1-46 9 39 39 0 0 1-14-9 44 44 0 0 1-12-29 42 42 0 0 1 12-29 42 42 0 0 1 60 0 42 42 0 0 1 12 29 42 42 0 0 1-4 16 39 39 0 0 1-8 13z" horiz-adv-x="1000" />

<glyph glyph-name="file-download-alt" unicode="&#xe947;" d="M333 517a42 42 0 0 1 0-84h42a42 42 0 0 1 0 84z m209-500h-292a42 42 0 0 0-42 41v584a42 42 0 0 0 42 41h208v-125a125 125 0 0 1 125-125h125v-83a42 42 0 0 1 84 0v125 3a55 55 0 0 1-3 11v4a45 45 0 0 1-8 11l-250 250a45 45 0 0 1-11 8 12 12 0 0 1-5 0 46 46 0 0 1-12 5h-253a125 125 0 0 1-125-125v-584a125 125 0 0 1 125-125h292a42 42 0 0 1 0 84z m0 608l108-108h-67a42 42 0 0 0-41 41z m41-275h-250a42 42 0 0 1 0-83h250a42 42 0 0 1 0 83z m280-262a42 42 0 0 1-59 0l-12-13v108a42 42 0 0 1-84 0v-108l-12 13a42 42 0 0 1-59-59l83-84a42 42 0 0 1 14-8 39 39 0 0 1 32 0 42 42 0 0 1 14 8l83 84a42 42 0 0 1 0 59z m-363 12a42 42 0 0 1 0 83h-167a42 42 0 0 1 0-83z" horiz-adv-x="1000" />

<glyph glyph-name="file-download" unicode="&#xe948;" d="M833 478a55 55 0 0 1-2 11v4a45 45 0 0 1-8 11l-250 250a45 45 0 0 1-12 8h-4a46 46 0 0 1-13 5h-252a125 125 0 0 1-125-125v-584a125 125 0 0 1 125-125h416a125 125 0 0 1 125 125v417 3z m-250 147l108-108h-66a42 42 0 0 0-42 41z m167-567a42 42 0 0 0-42-41h-416a42 42 0 0 0-42 41v584a42 42 0 0 0 42 41h208v-125a125 125 0 0 1 125-125h125z m-196 197l-12-13v108a42 42 0 0 1-84 0v-108l-12 13a42 42 0 0 1-59-60l83-83a42 42 0 0 1 14-9 39 39 0 0 1 32 0 42 42 0 0 1 14 9l83 83a42 42 0 0 1-59 60z" horiz-adv-x="1000" />

<glyph glyph-name="file-copy-alt" unicode="&#xe949;" d="M667 17h-334a125 125 0 0 0-125 125v416a42 42 0 0 1-83 0v-416a208 208 0 0 1 208-209h334a42 42 0 0 1 0 84z m-250 291a42 42 0 0 1 41-41h209a42 42 0 0 1 0 83h-209a42 42 0 0 1-41-42z m458 170a55 55 0 0 1-2 11v4a45 45 0 0 1-8 11l-250 250a45 45 0 0 1-12 8 13 13 0 0 1-4 0 37 37 0 0 1-14 5h-168a125 125 0 0 1-125-125v-417a125 125 0 0 1 125-125h333a125 125 0 0 1 125 125v250 3z m-250 147l108-108h-66a42 42 0 0 0-42 41z m167-400a42 42 0 0 0-42-42h-333a42 42 0 0 0-42 42v417a42 42 0 0 0 42 41h125v-125a125 125 0 0 1 7-41h-91a42 42 0 0 1 0-84h334z" horiz-adv-x="1000" />

<glyph glyph-name="file-heart" unicode="&#xe94a;" d="M833 478a55 55 0 0 1-2 11v4a45 45 0 0 1-8 11l-250 250a45 45 0 0 1-12 8h-4a46 46 0 0 1-13 5h-252a125 125 0 0 1-125-125v-584a125 125 0 0 1 125-125h416a125 125 0 0 1 125 125v417 3z m-250 147l108-108h-66a42 42 0 0 0-42 41z m167-567a42 42 0 0 0-42-41h-416a42 42 0 0 0-42 41v584a42 42 0 0 0 42 41h208v-125a125 125 0 0 1 125-125h125z m-250 320a122 122 0 0 1-143-195l113-113a42 42 0 0 1 60 0l113 113a122 122 0 0 1-143 195z m83-81a38 38 0 0 0 0-54l-83-83-83 83a38 38 0 0 0 0 54 38 38 0 0 0 54 0 42 42 0 0 1 59 0 38 38 0 0 0 53 0z" horiz-adv-x="1000" />

<glyph glyph-name="file-alt" unicode="&#xe94b;" d="M375 433h42a42 42 0 0 1 0 84h-42a42 42 0 0 1 0-84z m0-83a42 42 0 0 1 0-83h250a42 42 0 0 1 0 83z m458 128a55 55 0 0 1-2 11v4a45 45 0 0 1-8 11l-250 250a45 45 0 0 1-12 8 13 13 0 0 1-3 0 37 37 0 0 1-14 5h-252a125 125 0 0 1-125-125v-584a125 125 0 0 1 125-125h416a125 125 0 0 1 125 125v417 3z m-250 147l108-108h-66a42 42 0 0 0-42 41z m167-567a42 42 0 0 0-42-41h-416a42 42 0 0 0-42 41v584a42 42 0 0 0 42 41h208v-125a125 125 0 0 1 125-125h125z m-125 125h-250a42 42 0 0 1 0-83h250a42 42 0 0 1 0 83z" horiz-adv-x="1000" />

<glyph glyph-name="copy-landscape" unicode="&#xe94c;" d="M750 58h-500a125 125 0 0 0-125 125v334a42 42 0 0 1-83 0v-334a208 208 0 0 1 208-208h500a42 42 0 0 1 0 83z m208 378a55 55 0 0 1-2 11v4a45 45 0 0 1-8 12l-250 250a45 45 0 0 1-12 7h-3l-14 5h-336a125 125 0 0 1-125-125v-333a125 125 0 0 1 125-125h500a125 125 0 0 1 125 125v166 3z m-250 147l108-108h-66a42 42 0 0 0-42 42z m167-316a42 42 0 0 0-42-42h-500a42 42 0 0 0-41 42v333a42 42 0 0 0 41 42h292v-125a125 125 0 0 1 125-125h125z" horiz-adv-x="1000" />

<glyph glyph-name="copy-alt" unicode="&#xe94d;" d="M667 17h-334a125 125 0 0 0-125 125v416a42 42 0 0 1-83 0v-416a208 208 0 0 1 208-209h334a42 42 0 0 1 0 84z m208 461a55 55 0 0 1-2 11v4a45 45 0 0 1-8 11l-250 250a45 45 0 0 1-12 8h-4l-13 5h-169a125 125 0 0 1-125-125v-417a125 125 0 0 1 125-125h333a125 125 0 0 1 125 125v250 3z m-250 147l108-108h-66a42 42 0 0 0-42 41z m167-400a42 42 0 0 0-42-42h-333a42 42 0 0 0-42 42v417a42 42 0 0 0 42 41h125v-125a125 125 0 0 1 125-125h125z" horiz-adv-x="1000" />

<glyph glyph-name="folder-upload" unicode="&#xe94e;" d="M530 400a42 42 0 0 1-14 9 42 42 0 0 1-32 0 42 42 0 0 1-14-9l-83-83a42 42 0 0 1 59-59l12 12v-107a42 42 0 0 1 84 0v107l12-12a42 42 0 0 1 59 0 42 42 0 0 1 0 59z m262 221h-262l-13 42a125 125 0 0 1-119 83h-190a125 125 0 0 1-125-125v-542a125 125 0 0 1 125-125h584a125 125 0 0 1 125 125v417a125 125 0 0 1-125 125z m41-542a42 42 0 0 0-41-41h-584a42 42 0 0 0-41 41v542a42 42 0 0 0 41 42h190a42 42 0 0 0 40-29l22-68a42 42 0 0 1 40-28h292a42 42 0 0 0 41-42z" horiz-adv-x="1000" />

<glyph glyph-name="file-exclamation-alt" unicode="&#xe94f;" d="M375 433h42a42 42 0 0 1 0 84h-42a42 42 0 0 1 0-84z m250-83h-250a42 42 0 0 1 0-83h250a42 42 0 0 1 0 83z m0-167h-250a42 42 0 0 1 0-83h250a42 42 0 0 1 0 83z m196-178a66 66 0 0 1-6 5 32 32 0 0 1-7 3l-8 4a42 42 0 0 1-24-3 38 38 0 0 1-23-22 35 35 0 0 1-3-17 42 42 0 1 1 80 16 48 48 0 0 1-9 14z m12 473a55 55 0 0 1-2 11v4a45 45 0 0 1-8 11l-250 250a45 45 0 0 1-12 8 13 13 0 0 1-3 0 37 37 0 0 1-14 5h-252a125 125 0 0 1-125-125v-584a125 125 0 0 1 125-125h333a42 42 0 0 1 0 84h-333a42 42 0 0 0-42 41v584a42 42 0 0 0 42 41h208v-125a125 125 0 0 1 125-125h125v-83a42 42 0 0 1 83 0v125 3z m-208 39a42 42 0 0 0-42 41v67l108-108z m167-292a42 42 0 0 1-42-42v-83a42 42 0 0 1 83 0v83a42 42 0 0 1-41 42z" horiz-adv-x="1000" />

<glyph glyph-name="file-exclamation" unicode="&#xe950;" d="M538 158a32 32 0 0 1-3 7 66 66 0 0 1-5 6 42 42 0 0 1-46 9 42 42 0 0 1-14-9 66 66 0 0 1-5-6 32 32 0 0 1-3-7 27 27 0 0 1-3-8 63 63 0 0 1 0-8 35 35 0 0 1 3-16 48 48 0 0 1 9-14 42 42 0 0 1 29-12 35 35 0 0 1 16 3 38 38 0 0 1 22 23 35 35 0 0 1 4 16 63 63 0 0 1 0 8 27 27 0 0 1-4 8z m295 320a55 55 0 0 1-2 11v4a45 45 0 0 1-8 11l-250 250a45 45 0 0 1-12 8h-3a37 37 0 0 1-14 5h-252a125 125 0 0 1-125-125v-584a125 125 0 0 1 125-125h416a125 125 0 0 1 125 125v417 3z m-250 147l108-108h-66a42 42 0 0 0-42 41z m167-567a42 42 0 0 0-42-41h-416a42 42 0 0 0-42 41v584a42 42 0 0 0 42 41h208v-125a125 125 0 0 1 125-125h125z m-250 334a42 42 0 0 1-42-42v-83a42 42 0 0 1 84 0v83a42 42 0 0 1-42 42z" horiz-adv-x="1000" />

<glyph glyph-name="copy" unicode="&#xe951;" d="M875 478a55 55 0 0 1-2 11v4a45 45 0 0 1-8 11l-250 250a45 45 0 0 1-12 8 13 13 0 0 1-4 0 37 37 0 0 1-14 5h-168a125 125 0 0 1-125-125v-42h-42a125 125 0 0 1-125-125v-417a125 125 0 0 1 125-125h333a125 125 0 0 1 125 125v42h42a125 125 0 0 1 125 125v250 3z m-250 147l108-108h-66a42 42 0 0 0-42 41z m0-567a42 42 0 0 0-42-41h-333a42 42 0 0 0-42 41v417a42 42 0 0 0 42 42h42v-292a125 125 0 0 1 125-125h208z m167 167a42 42 0 0 0-42-42h-333a42 42 0 0 0-42 42v417a42 42 0 0 0 42 41h125v-125a125 125 0 0 1 125-125h125z" horiz-adv-x="1000" />

<glyph glyph-name="file-blank" unicode="&#xe952;" d="M833 478a55 55 0 0 1-2 11v4a45 45 0 0 1-8 11l-250 250a45 45 0 0 1-12 8h-3a37 37 0 0 1-14 5h-252a125 125 0 0 1-125-125v-584a125 125 0 0 1 125-125h416a125 125 0 0 1 125 125v417 3z m-250 147l108-108h-66a42 42 0 0 0-42 41z m167-567a42 42 0 0 0-42-41h-416a42 42 0 0 0-42 41v584a42 42 0 0 0 42 41h208v-125a125 125 0 0 1 125-125h125z" horiz-adv-x="1000" />

<glyph glyph-name="stopwatch-slash" unicode="&#xe953;" d="M442 615a42 42 0 0 1 15-83 258 258 0 0 0 41 4 250 250 0 0 0 250-250 258 258 0 0 0-3-42 42 42 0 0 1 33-48h7a42 42 0 0 1 42 34 310 310 0 0 1 6 58 333 333 0 0 1-71 204l38 38a42 42 0 0 1-59 59l-37-38a333 333 0 0 1-204 70 310 310 0 0 1-58-6z m-25 48h166a42 42 0 0 1 0 83h-166a42 42 0 0 1 0-83z m145-379v4 3l56 55a42 42 0 1 1-59 59l-56-55h-6l-259 259a42 42 0 0 1-59-59l20-20 38-38a333 333 0 0 1 467-468l58-58a42 42 0 0 1 59 0 42 42 0 0 1 0 59z m-62-246a250 250 0 0 0-204 395l142-141v-3a63 63 0 0 1 62-64h3l142-142a250 250 0 0 0-145-45z" horiz-adv-x="1000" />

<glyph glyph-name="file" unicode="&#xe954;" d="M833 478a55 55 0 0 1-2 11v4a45 45 0 0 1-8 11l-250 250a45 45 0 0 1-12 8h-3l-14 5h-252a125 125 0 0 1-125-125v-584a125 125 0 0 1 125-125h416a125 125 0 0 1 125 125v417 3z m-250 147l108-108h-108z m167-567a42 42 0 0 0-42-41h-416a42 42 0 0 0-42 41v584a42 42 0 0 0 42 41h208v-208a42 42 0 0 1 42-42h208z" horiz-adv-x="1000" />

<glyph glyph-name="folder-times" unicode="&#xe955;" d="M613 400a42 42 0 0 1-59 0l-54-54-54 54a42 42 0 0 1-59-59l54-53-54-54a42 42 0 0 1 0-59 42 42 0 0 1 59 0l54 54 54-54a42 42 0 0 1 59 0 42 42 0 0 1 0 59l-54 54 54 53a42 42 0 0 1 0 59z m179 221h-262l-13 42a125 125 0 0 1-119 83h-190a125 125 0 0 1-125-125v-542a125 125 0 0 1 125-125h584a125 125 0 0 1 125 125v417a125 125 0 0 1-125 125z m41-542a42 42 0 0 0-41-41h-584a42 42 0 0 0-41 41v542a42 42 0 0 0 41 42h190a42 42 0 0 0 40-29l22-68a42 42 0 0 1 40-28h292a42 42 0 0 0 41-42z" horiz-adv-x="1000" />

<glyph glyph-name="document-info" unicode="&#xe956;" d="M500 267a42 42 0 0 1-42-42v-83a42 42 0 0 1 84 0v83a42 42 0 0 1-42 42z m16 121a42 42 0 0 1-24 4l-8-3-7-4-7-5a42 42 0 0 1-12-30 42 42 0 0 1 12-30 42 42 0 0 1 14-8 35 35 0 0 1 16-4 42 42 0 0 1 30 12 42 42 0 0 1 12 30 42 42 0 0 1-12 30 48 48 0 0 1-14 8z m317 90a55 55 0 0 1-2 11v4a45 45 0 0 1-8 11l-250 250a45 45 0 0 1-12 8h-4a46 46 0 0 1-13 5h-252a125 125 0 0 1-125-125v-584a125 125 0 0 1 125-125h416a125 125 0 0 1 125 125v417 3z m-250 147l108-108h-66a42 42 0 0 0-42 41z m167-567a42 42 0 0 0-42-41h-416a42 42 0 0 0-42 41v584a42 42 0 0 0 42 41h208v-125a125 125 0 0 1 125-125h125z" horiz-adv-x="1000" />

<glyph glyph-name="file-times" unicode="&#xe957;" d="M613 338a42 42 0 0 1-59 0l-54-54-54 54a42 42 0 0 1-59-59l54-54-54-54a42 42 0 0 1 0-59 42 42 0 0 1 59 0l54 54 54-54a42 42 0 0 1 59 0 42 42 0 0 1 0 59l-54 54 54 54a42 42 0 0 1 0 59z m220 140a55 55 0 0 1-2 11v4a45 45 0 0 1-8 11l-250 250a45 45 0 0 1-12 8h-4a46 46 0 0 1-13 5h-252a125 125 0 0 1-125-125v-584a125 125 0 0 1 125-125h416a125 125 0 0 1 125 125v417 3z m-250 147l108-108h-66a42 42 0 0 0-42 41z m167-567a42 42 0 0 0-42-41h-416a42 42 0 0 0-42 41v584a42 42 0 0 0 42 41h208v-125a125 125 0 0 1 125-125h125z" horiz-adv-x="1000" />

<glyph glyph-name="file-info-alt" unicode="&#xe958;" d="M625 183h-250a42 42 0 0 1 0-83h250a42 42 0 0 1 0 83z m-250 250h42a42 42 0 0 1 0 84h-42a42 42 0 0 1 0-84z m250-83h-250a42 42 0 0 1 0-83h250a42 42 0 0 1 0 83z m196-137a42 42 0 0 1-13 9 38 38 0 0 1-32 0 42 42 0 0 1-14-9 48 48 0 0 1-9-14 42 42 0 0 1 9-45 42 42 0 0 1 30-12 42 42 0 0 1 16 3 48 48 0 0 1 13 9 42 42 0 0 1 9 45 48 48 0 0 1-9 14z m12 265a55 55 0 0 1-2 11v4a45 45 0 0 1-8 11l-250 250a45 45 0 0 1-12 8 13 13 0 0 1-3 0 37 37 0 0 1-14 5h-252a125 125 0 0 1-125-125v-584a125 125 0 0 1 125-125h333a42 42 0 0 1 0 84h-333a42 42 0 0 0-42 41v584a42 42 0 0 0 42 41h208v-125a125 125 0 0 1 125-125h125v-83a42 42 0 0 1 83 0v125 3z m-208 39a42 42 0 0 0-42 41v67l108-108z m167-417a42 42 0 0 1-42-42v-83a42 42 0 0 1 83 0v83a42 42 0 0 1-41 42z" horiz-adv-x="1000" />

<glyph glyph-name="clipboard-blank" unicode="&#xe959;" d="M708 683h-41a83 83 0 0 1-84 84h-166a83 83 0 0 1-84-84h-41a125 125 0 0 1-125-125v-500a125 125 0 0 1 125-125h416a125 125 0 0 1 125 125v500a125 125 0 0 1-125 125z m-291 0h166v-83h-166v83z m333-625a42 42 0 0 0-42-41h-416a42 42 0 0 0-42 41v500a42 42 0 0 0 42 42h41a83 83 0 0 1 84-83h166a83 83 0 0 1 84 83h41a42 42 0 0 0 42-42z" horiz-adv-x="1000" />

<glyph glyph-name="clipboard-notes" unicode="&#xe95a;" d="M542 267h-167a42 42 0 0 1 0-84h167a42 42 0 0 1 0 84z m166 416h-49a125 125 0 0 1-117 84h-84a125 125 0 0 1-117-84h-49a125 125 0 0 1-125-125v-500a125 125 0 0 1 125-125h416a125 125 0 0 1 125 125v500a125 125 0 0 1-125 125z m-291-41a42 42 0 0 0 41 41h84a42 42 0 0 0 41-41v-42h-166z m333-584a42 42 0 0 0-42-41h-416a42 42 0 0 0-42 41v500a42 42 0 0 0 42 42h41v-42a42 42 0 0 1 42-41h250a42 42 0 0 1 42 41v42h41a42 42 0 0 0 42-42z m-125 375h-250a42 42 0 0 1 0-83h250a42 42 0 0 1 0 83z" horiz-adv-x="1000" />

<glyph glyph-name="file-times-alt" unicode="&#xe95b;" d="M583 350h-250a42 42 0 0 1 0-83h250a42 42 0 0 1 0 83z m226-292l54 54a42 42 0 0 1-59 59l-54-54-54 54a42 42 0 0 1-59-59l54-54-54-53a42 42 0 0 1 0-60 42 42 0 0 1 59 0l54 55 54-55a42 42 0 0 1 59 0 42 42 0 0 1 0 60z m-309-41h-250a42 42 0 0 0-42 41v584a42 42 0 0 0 42 41h208v-125a125 125 0 0 1 125-125h125v-125a42 42 0 0 1 84 0v167 3a55 55 0 0 1-3 11v4a45 45 0 0 1-8 11l-250 250a45 45 0 0 1-11 8 12 12 0 0 1-5 0 46 46 0 0 1-12 5h-253a125 125 0 0 1-125-125v-584a125 125 0 0 1 125-125h250a42 42 0 0 1 0 84z m42 608l108-108h-67a42 42 0 0 0-41 41z m-209-108a42 42 0 0 1 0-84h42a42 42 0 0 1 0 84z m167-334h-167a42 42 0 0 1 0-83h167a42 42 0 0 1 0 83z" horiz-adv-x="1000" />

<glyph glyph-name="folder-download" unicode="&#xe95c;" d="M554 275l-12-12v108a42 42 0 0 1-84 0v-108l-12 12a42 42 0 0 1-59-59l83-83a42 42 0 0 1 14-9 39 39 0 0 1 32 0 42 42 0 0 1 14 9l83 83a42 42 0 0 1-59 59z m238 346h-262l-13 42a125 125 0 0 1-119 83h-190a125 125 0 0 1-125-125v-542a125 125 0 0 1 125-125h584a125 125 0 0 1 125 125v417a125 125 0 0 1-125 125z m41-542a42 42 0 0 0-41-41h-584a42 42 0 0 0-41 41v542a42 42 0 0 0 41 42h190a42 42 0 0 0 40-29l22-68a42 42 0 0 1 40-28h292a42 42 0 0 0 41-42z" horiz-adv-x="1000" />

<glyph glyph-name="file-bookmark-alt" unicode="&#xe95d;" d="M313 433h41a42 42 0 0 1 0 84h-41a42 42 0 0 1 0-84z m166-250h-166a42 42 0 0 1 0-83h166a42 42 0 0 1 0 83z m0 167h-166a42 42 0 0 1 0-83h166a42 42 0 0 1 0 83z m289 109a42 42 0 0 1-9 46l-250 250a45 45 0 0 1-12 8 13 13 0 0 1-4 0l-11 4h-253a125 125 0 0 1-125-125v-584a125 125 0 0 1 125-125h250a42 42 0 0 1 0 84h-250a42 42 0 0 0-42 41v584a42 42 0 0 0 42 41h208v-125a125 125 0 0 1 126-125h166a42 42 0 0 1 39 26z m-205 58a42 42 0 0 0-42 41v67l108-108z m291-167h-208a42 42 0 0 1-42-42v-333a42 42 0 0 1 22-37 42 42 0 0 1 42 2l82 55 83-55a42 42 0 0 1 63 35v333a42 42 0 0 1-42 42z m-41-297l-40 27a42 42 0 0 1-46 0l-39-27v214h125z" horiz-adv-x="1000" />

<glyph glyph-name="file-block-alt" unicode="&#xe95e;" d="M292 517a42 42 0 0 1 0-84h41a42 42 0 0 1 0 84z m208-500h-292a42 42 0 0 0-41 41v584a42 42 0 0 0 41 41h209v-125a125 125 0 0 1 125-125h125v-41a42 42 0 0 1 83 0v83 3a55 55 0 0 1-2 11v4a45 45 0 0 1-8 11l-250 250a45 45 0 0 1-12 8 13 13 0 0 1-4 0l-13 5h-253a125 125 0 0 1-125-125v-584a125 125 0 0 1 125-125h292a42 42 0 0 1 0 84z m0 608l108-108h-66a42 42 0 0 0-42 41z m368-407a171 171 0 0 1-236 0 167 167 0 1 1 236 0z m-201-118a83 83 0 0 0 83 83 87 87 0 0 0 21-3l-101-101a87 87 0 0 0-3 21z m142-59a83 83 0 0 0-80-21l101 101a87 87 0 0 0 3-21 83 83 0 0 0-24-59z m-351 59a42 42 0 0 1 0 83h-166a42 42 0 0 1 0-83z m84 250h-250a42 42 0 0 1 0-83h250a42 42 0 0 1 0 83z" horiz-adv-x="1000" />

<glyph glyph-name="folder-check" unicode="&#xe95f;" d="M595 400l-137-137-53 54a42 42 0 0 1-60-59l84-83a42 42 0 0 1 59 0l167 166a42 42 0 0 1-60 59z m197 221h-262l-13 42a125 125 0 0 1-119 83h-190a125 125 0 0 1-125-125v-542a125 125 0 0 1 125-125h584a125 125 0 0 1 125 125v417a125 125 0 0 1-125 125z m41-542a42 42 0 0 0-41-41h-584a42 42 0 0 0-41 41v542a42 42 0 0 0 41 42h190a42 42 0 0 0 40-29l22-68a42 42 0 0 1 40-28h292a42 42 0 0 0 41-42z" horiz-adv-x="1000" />

<glyph glyph-name="file-check" unicode="&#xe960;" d="M833 478a55 55 0 0 1-2 11v4a45 45 0 0 1-8 11l-250 250a45 45 0 0 1-12 8 13 13 0 0 1-3 0 37 37 0 0 1-14 5h-252a125 125 0 0 1-125-125v-584a125 125 0 0 1 125-125h416a125 125 0 0 1 125 125v417 3z m-250 147l108-108h-66a42 42 0 0 0-42 41z m167-567a42 42 0 0 0-42-41h-416a42 42 0 0 0-42 41v584a42 42 0 0 0 42 41h208v-125a125 125 0 0 1 125-125h125z m-155 280l-137-138-53 55a42 42 0 0 1-60-60l84-83a42 42 0 0 1 59 0l167 167a42 42 0 0 1-60 59z" horiz-adv-x="1000" />

<glyph glyph-name="folder-plus" unicode="&#xe961;" d="M583 329h-41v42a42 42 0 0 1-84 0v-42h-41a42 42 0 0 1 0-83h41v-42a42 42 0 0 1 84 0v42h41a42 42 0 0 1 0 83z m209 292h-262l-13 42a125 125 0 0 1-119 83h-190a125 125 0 0 1-125-125v-542a125 125 0 0 1 125-125h584a125 125 0 0 1 125 125v417a125 125 0 0 1-125 125z m41-542a42 42 0 0 0-41-41h-584a42 42 0 0 0-41 41v542a42 42 0 0 0 41 42h190a42 42 0 0 0 40-29l22-68a42 42 0 0 1 40-28h292a42 42 0 0 0 41-42z" horiz-adv-x="1000" />

<glyph glyph-name="clipboard" unicode="&#xe962;" d="M708 683h-49a125 125 0 0 1-117 84h-84a125 125 0 0 1-117-84h-49a125 125 0 0 1-125-125v-500a125 125 0 0 1 125-125h416a125 125 0 0 1 125 125v500a125 125 0 0 1-125 125z m-291-41a42 42 0 0 0 41 41h84a42 42 0 0 0 41-41v-42h-166z m333-584a42 42 0 0 0-42-41h-416a42 42 0 0 0-42 41v500a42 42 0 0 0 42 42h41v-42a42 42 0 0 1 42-41h250a42 42 0 0 1 42 41v42h41a42 42 0 0 0 42-42z" horiz-adv-x="1000" />

<glyph glyph-name="file-check-alt" unicode="&#xe963;" d="M479 17h-250a42 42 0 0 0-42 41v584a42 42 0 0 0 42 41h208v-125a125 125 0 0 1 126-125h125v-208a42 42 0 0 1 83 0v250 3a55 55 0 0 1-3 11v4a45 45 0 0 1-8 11l-250 250a45 45 0 0 1-11 8 12 12 0 0 1-4 0 46 46 0 0 1-13 5h-253a125 125 0 0 1-125-125v-584a125 125 0 0 1 125-125h250a42 42 0 0 1 0 84z m42 608l108-108h-66a42 42 0 0 0-42 41z m-208-358h250a42 42 0 0 1 0 83h-250a42 42 0 0 1 0-83z m166-84h-166a42 42 0 0 1 0-83h166a42 42 0 0 1 0 83z m-166 250h41a42 42 0 0 1 0 84h-41a42 42 0 0 1 0-84z m571-262a42 42 0 0 1-59 0l-137-137-54 54a42 42 0 0 1-59-59l83-84a42 42 0 0 1 59 0l167 167a42 42 0 0 1 0 59z" horiz-adv-x="1000" />

<glyph glyph-name="print" unicode="&#xe964;" d="M292 433a42 42 0 1 1 41-41 42 42 0 0 1-41 41z m500 167h-42v125a42 42 0 0 1-42 42h-416a42 42 0 0 1-42-42v-125h-42a125 125 0 0 1-125-125v-250a125 125 0 0 1 125-125h42v-125a42 42 0 0 1 42-42h416a42 42 0 0 1 42 42v125h42a125 125 0 0 1 125 125v250a125 125 0 0 1-125 125z m-459 83h334v-83h-334z m334-666h-334v166h334z m166 208a42 42 0 0 0-41-42h-42v42a42 42 0 0 1-42 42h-416a42 42 0 0 1-42-42v-42h-42a42 42 0 0 0-41 42v250a42 42 0 0 0 41 42h584a42 42 0 0 0 41-42z" horiz-adv-x="1000" />

<glyph glyph-name="folder-network" unicode="&#xe965;" d="M875 100h-257a125 125 0 0 1-76 76v91h153a97 97 0 0 1 97 97v222a97 97 0 0 1-97 97h-167l-5 17a97 97 0 0 1-91 67h-125a97 97 0 0 1-99-97v-306a97 97 0 0 1 97-97h153v-91a125 125 0 0 1-76-76h-257a42 42 0 0 1 0-83h258a125 125 0 0 1 235 0h257a42 42 0 0 1 0 83z m-570 250a14 14 0 0 0-13 14v306a14 14 0 0 0 13 13h125a14 14 0 0 0 14-9l15-46a42 42 0 0 1 41-28h195a14 14 0 0 0 13-14v-222a14 14 0 0 0-13-14z m195-333a42 42 0 1 0 42 41 42 42 0 0 0-42-41z" horiz-adv-x="1000" />

<glyph glyph-name="desktop-alt" unicode="&#xe966;" d="M792 767h-584a125 125 0 0 1-125-125v-417a125 125 0 0 1 125-125h125v-83h-125a42 42 0 0 1 0-84h584a42 42 0 0 1 0 84h-125v83h125a125 125 0 0 1 125 125v417a125 125 0 0 1-125 125z m-209-750h-166v83h166z m250 208a42 42 0 0 0-41-42h-584a42 42 0 0 0-41 42v42h666z m0 125h-666v292a42 42 0 0 0 41 41h584a42 42 0 0 0 41-41z" horiz-adv-x="1000" />

<glyph glyph-name="mouse-alt" unicode="&#xe967;" d="M500 600a42 42 0 0 1-42-42v-83a42 42 0 0 1 84 0v83a42 42 0 0 1-42 42z m0 167a292 292 0 0 1-292-292v-250a292 292 0 0 1 584 0v250a292 292 0 0 1-292 292z m208-542a208 208 0 0 0-416 0v250a208 208 0 0 0 416 0z" horiz-adv-x="1000" />
</font>
</defs>
</svg>
